[MINI-HD] Solomon Kane (2009) โซโลมอน ตัดหัวผี [1080p] [พากย์ไทย DTS + เสียงอังกฤษ DTS] [บรรยายไทย + อังกฤษ] [เสียงไทย + ซับไทย] [OPENLOAD]

0

Solomon Kane (2009)

โหลดหนัง Solomon Kane (2009) โซโลมอน ตัดหัวผี

Solomon Kane (2009) 1h 44min | Action, Adventure, Fantasy | 25 March 2010 (Netherlands) Summary: A ruthless mercenary renounces violence after learning his soul is bound for hell. When a young girl is kidnapped and her family slain by a sorcerer's murderous cult, he is forced to fight and seek his redemption slaying evil.
Countries: Czech Republic, UK, FranceLanguages: English, Arabic

เรื่องย่อ Solomon Kane (2009) โซโลมอน ตัดหัวผี

ซโลมอน เคน (เจอมส์ เพียวฟอย) คือมือสังหารระดับพระกาฬ แห่งศตวรรษที่ 16 ด้วยอาวุธครบมือ พร้อมด้วยหมู่โจรตะลุยปล้นสะดมไปบนเส้นทางที่ชุ่มโชกด้วยเลือด แต่เมื่อเขาบุกเข้าไปในปราสาทลึกลับเพื่อยึดครองทรัพย์สมบัติมหาศาลที่ร่ำลือกันมานานชะตาชีวิตก็พลิกผันทันที ลูกสมุนของเคนถูกสิ่งมีชีวิตเหนือธรรมชาติเด็ดหัวไปทีละคนสองคน กระทั่งเหลือแต่เขาเท่านั้นที่ต้องเผชิญหน้ากับมัจจุราช ซึ่งถูกส่งมาจากขุมนรกเพื่อกระชากวิญญาณอันมืดบอด แต่สุดท้าย เคนหนีรอดจากคมเคียวมาได้พร้อมกับตระหนักได้ว่าถึงเวลาแล้วที่จะต้องไถ่บาปหลังจากนั้นจึงละทิ้งความโหดร้ายอุทิศทั้งชีวิตให้กับสันติและความดีงาม ทว่าไม่นานจิตวิญญาณใหม่ของเคนก็ถูกทดสอบ เขาไม่สามารถช่วยผู้คนในครอบครัวครอว์ธอร์ให้รอดพ้นจากการถูกสังหารอย่างโหดเหี้ยม เขาสาบานว่าจะต้องตามหาและปลดปล่อยลูกสาวของพวกเขาที่ถูกจับตัวไปให้เป็นอิสระให้ได้ ไม่ว่านั่นจะหมายถึงการนำพาจิตวิญญาณกลับไปสู่อันตราย หรือต้องคลุกคลีกับพรสวรรค์ทางด้านการฆ่าอีกครั้งก็ตาม

Complete name : [MINI-HD]_Solomon.Kane.2009.1080p.BluRay.DTS.x264.One2loadup.com.mkv
Format : Matroska
Format version : Version 4
File size : 9.10 GiB
Duration : 1 h 46 min
Overall bit rate : 12.2 Mb/s
Movie name : [MINI-HD]_Solomon.Kane.2009.1080p.BluRay.DTS.x264.One2loadup.com
Encoded date : UTC 2017-03-07 18:55:18
Writing application : mkvmerge v9.8.0 (‘Kuglblids’) 64bit
Writing library : libebml v1.3.4 + libmatroska v1.4.5

Video
ID : 1
Format : AVC
Format/Info : Advanced Video Codec
Format profile : [email protected]
Format settings : CABAC / 5 Ref Frames
Format settings, CABAC : Yes
Format settings, ReFrames : 5 frames
Codec ID : V_MPEG4/ISO/AVC
Duration : 1 h 43 min
Bit rate : 9 391 kb/s
Width : 1 920 pixels
Height : 816 pixels
Display aspect ratio : 2.35:1
Frame rate mode : Constant
Frame rate : 24.000 FPS
Color space : YUV
Chroma subsampling : 4:2:0
Bit depth : 8 bits
Scan type : Progressive
Bits/(Pixel*Frame) : 0.250
Stream size : 6.81 GiB (75%)
Title : [MINI-HD]_Solomon.Kane.2009.1080p.BluRay.DTS.x264.One2loadup.com
Writing library : x264 core 96 r1613 81e75e9
Encoding settings : cabac=1 / ref=5 / deblock=1:0:0 / analyse=0x3:0x2 / me=umh / subme=7 / psy=1 / psy_rd=1.00:0.00 / mixed_ref=1 / me_range=16 / chroma_me=0 / trellis=1 / 8x8dct=1 / cqm=0 / deadzone=21,11 / fast_pskip=0 / chroma_qp_offset=-2 / threads=12 / sliced_threads=0 / nr=0 / decimate=1 / interlaced=0 / constrained_intra=0 / bframes=3 / b_pyramid=0 / b_adapt=1 / b_bias=0 / direct=1 / weightb=1 / weightp=2 / keyint=250 / keyint_min=25 / scenecut=40 / intra_refresh=0 / rc=2pass / mbtree=0 / bitrate=9391 / ratetol=1.0 / qcomp=0.60 / qpmin=10 / qpmax=51 / qpstep=4 / cplxblur=20.0 / qblur=0.5 / ip_ratio=1.40 / pb_ratio=1.30 / aq=1:1.00
Language : English
Default : Yes
Forced : No

Audio #1
ID : 2
Format : DTS
Format/Info : Digital Theater Systems
Codec ID : A_DTS
Duration : 1 h 46 min
Bit rate mode : Constant
Bit rate : 1 510 kb/s
Channel(s) : 6 channels
Channel layout : C L R Ls Rs LFE
Sampling rate : 48.0 kHz
Frame rate : 93.750 FPS (512 SPF)
Bit depth : 24 bits
Compression mode : Lossy
Delay relative to video : 22 ms
Stream size : 1.13 GiB (12%)
Title : THAI DTS 6.0 ch / 1510kbps
Language : Thai
Default : Yes
Forced : Yes

Audio #2
ID : 3
Format : DTS
Format/Info : Digital Theater Systems
Codec ID : A_DTS
Duration : 1 h 46 min
Bit rate mode : Constant
Bit rate : 1 509 kb/s
Channel(s) : 6 channels
Channel layout : C L R Ls Rs LFE
Sampling rate : 48.0 kHz
Frame rate : 93.750 FPS (512 SPF)
Bit depth : 24 bits
Compression mode : Lossy
Stream size : 1.13 GiB (12%)
Title : ENG DTS 6.0 ch / 1536 kbph
Language : English
Default : No
Forced : No

Text #1
ID : 4
Format : VobSub
Muxing mode : zlib
Codec ID : S_VOBSUB
Codec ID/Info : Picture based subtitle format used on DVDs
Duration : 1 h 34 min
Bit rate : 1 123 b/s
Count of elements : 789
Stream size : 778 KiB (0%)
Title : THAI 480p DVD Master
Language : Thai
Default : No
Forced : No

Text #2
ID : 5
Format : VobSub
Muxing mode : zlib
Codec ID : S_VOBSUB
Codec ID/Info : Picture based subtitle format used on DVDs
Duration : 1 h 34 min
Bit rate : 1 940 b/s
Count of elements : 788
Stream size : 1.31 MiB (0%)
Title : THAI 720p AS
Language : Thai
Default : No
Forced : No

Text #3
ID : 6
Format : VobSub
Muxing mode : zlib
Codec ID : S_VOBSUB
Codec ID/Info : Picture based subtitle format used on DVDs
Duration : 1 h 34 min
Bit rate : 3 145 b/s
Count of elements : 788
Stream size : 2.13 MiB (0%)
Title : THAI 1080p AS Yellow
Language : Thai
Default : No
Forced : No

Text #4
ID : 7
Format : VobSub
Muxing mode : zlib
Codec ID : S_VOBSUB
Codec ID/Info : Picture based subtitle format used on DVDs
Duration : 1 h 34 min
Bit rate : 3 150 b/s
Count of elements : 788
Stream size : 2.13 MiB (0%)
Title : THAI 1080p AS
Language : Thai
Default : No
Forced : No

Text #5
ID : 8
Format : VobSub
Muxing mode : zlib
Codec ID : S_VOBSUB
Codec ID/Info : Picture based subtitle format used on DVDs
Duration : 1 h 34 min
Bit rate : 2 872 b/s
Count of elements : 788
Stream size : 1.94 MiB (0%)
Title : THAI 1080p TA
Language : Thai
Default : Yes
Forced : Yes

Text #6
ID : 9
Format : PGS
Muxing mode : zlib
Codec ID : S_HDMV/PGS
Codec ID/Info : Picture based subtitle format used on BDs/HD-DVDs
Duration : 1 h 34 min
Bit rate : 11.0 kb/s
Count of elements : 1576
Stream size : 7.41 MiB (0%)
Title : THAI PGS AS
Language : Thai
Default : No
Forced : No

Text #7
ID : 10
Format : PGS
Muxing mode : zlib
Codec ID : S_HDMV/PGS
Codec ID/Info : Picture based subtitle format used on BDs/HD-DVDs
Duration : 1 h 34 min
Bit rate : 10.2 kb/s
Count of elements : 1576
Stream size : 6.89 MiB (0%)
Title : THAI PGS TA
Language : Thai
Default : No
Forced : No

Text #8
ID : 11
Format : PGS
Muxing mode : zlib
Codec ID : S_HDMV/PGS
Codec ID/Info : Picture based subtitle format used on BDs/HD-DVDs
Duration : 1 h 34 min
Bit rate : 11.0 kb/s
Count of elements : 1580
Stream size : 7.42 MiB (0%)
Title : THAI PGS AS Out
Default : No
Forced : No

Text #9
ID : 12
Format : PGS
Muxing mode : zlib
Codec ID : S_HDMV/PGS
Codec ID/Info : Picture based subtitle format used on BDs/HD-DVDs
Duration : 1 h 34 min
Bit rate : 10.2 kb/s
Count of elements : 1580
Stream size : 6.89 MiB (0%)
Title : THAI PGS TA Out
Default : No
Forced : No

Text #10
ID : 13
Format : UTF-8
Codec ID : S_TEXT/UTF8
Codec ID/Info : UTF-8 Plain Text
Duration : 1 h 34 min
Bit rate : 32 b/s
Count of elements : 816
Stream size : 22.2 KiB (0%)
Title : ENG SRT
Language : English
Default : No
Forced : No

DOWNLOAD


PART01 |||| PART02 |||| PART03 |||| PART04 |||| PART05 |||| PART06 |||| PART07

PART01 |||| PART02 |||| PART03 |||| PART04 |||| PART05 |||| PART06 |||| PART07

PART01 |||| PART02 |||| PART03 |||| PART04 |||| PART05 |||| PART06 |||| PART07

PART01 |||| PART02 |||| PART03 |||| PART04 |||| PART05 |||| PART06 |||| PART07


Leave A Reply

Your email address will not be published.

%d bloggers like this: