[MINI-HD] Sniper : Reloaded (2011) สไนเปอร์ 4 โคตรนักฆ่าซุ่มสังหาร [พากย์ไทย 5.1 + เสียงอังกฤษ DTS] [บรรยายไทย + อังกฤษ] [เสียงไทย + ซับไทย] [OPENLOAD]

1

โหลดหนัง Sniper : Reloaded (2011) สไนเปอร์ 4 โคตรนักฆ่าซุ่มสังหาร

Sniper: Reloaded (2011) 1h 31min | Action, Drama, Thriller | Video 26 April 2011 Summary: The son of a renowned sniper decides to track down the sniper who ambushed his squad when they were sent to rescue a white planter in the Congo.
Countries: South Africa, USA, GermanyLanguages: English

เรื่องย่อ Sniper : Reloaded (2011) สไนเปอร์ 4 โคตรนักฆ่าซุ่มสังหาร

ขณะปฏิบัติงานให้กับกองกำลังยูเอ็นในประเทศสาธารณรัฐคองโก นายทหารนาวิกโยธิน แบรนดอน เบ็คเก็ตต์ (แชด ไมเคิล คอลลินส์) ลูกชายของโธมัส เบ็คเก็ตต์ สไนเปอร์มือพระกาฬจากภาคแรก ได้รับคำสั่งให้ช่วยเหลือเกษตรกรชาวยุโรปที่ติดอยู่กลางเขตแดนฝ่ายกบฏหัวรุนแรง เมื่อเบ็คเก็ตต์และ.ลูกน้องเดินทางมาถึงฟาร์มแห่งนี้ สไนเปอร์ลึกลับคนหนึ่งได้ซุ่มยิงโจมตีพวกเขาทำให้เบ็คเก็ตต์ได้รับบาดเจ็บ ส่วนคนอื่นๆเถูกสังหาร ด้วยความช่วยเหลือจากริชาร์ด มิลเลอร์ (บิลลี่ เซน) มือซุ่มยิงอดีตลูกศิษย์ของพ่อเบ็คเก็ตต์จึงต้องเรียนรู้วิธีคิดแบบสไนเปอร์เพื่อตามรอยคนร้ายก่อนที่มันจะ ย้อนกลับมาปิดภารกิจสังหารให้เสร็จสิ้น

Complete name : [MINI-HD]_Sniper.Reloaded.2011.720p.BDRip.DTS.x264.One2loadup.com.mkv
Format : Matroska
Format version : Version 2
File size : 3.44 GiB
Duration : 1 h 31 min
Overall bit rate : 5 393 kb/s
Movie name : [MINI-HD]_Sniper.Reloaded.2011.720p.BDRip.DTS.x264.One2loadup.com
Encoded date : UTC 2011-04-24 11:02:43
Writing application : mkvmerge v3.4.0 (‘Rapunzel’) built on May 15 2010 09:38:20
Writing library : libebml v0.8.0 + libmatroska v0.9.0

Video
ID : 1
Format : AVC
Format/Info : Advanced Video Codec
Format profile : [email protected]
Format settings : CABAC / 3 Ref Frames
Format settings, CABAC : Yes
Format settings, ReFrames : 3 frames
Codec ID : V_MPEG4/ISO/AVC
Duration : 1 h 31 min
Bit rate : 3 329 kb/s
Nominal bit rate : 3 584 kb/s
Width : 1 280 pixels
Height : 720 pixels
Display aspect ratio : 16:9
Frame rate mode : Constant
Frame rate : 23.976 FPS
Color space : YUV
Chroma subsampling : 4:2:0
Bit depth : 8 bits
Scan type : Progressive
Bits/(Pixel*Frame) : 0.151
Stream size : 2.12 GiB (62%)
Title : [MINI-HD]_Sniper.Reloaded.2011.720p.BDRip.DTS.x264.One2loadup.com
Writing library : x264 core 80 r1376M 3feaec2
Encoding settings : cabac=1 / ref=3 / deblock=1:0:0 / analyse=0x3:0x113 / me=hex / subme=7 / psy=1 / psy_rd=1.0:0.0 / mixed_ref=1 / me_range=16 / chroma_me=1 / trellis=1 / 8x8dct=1 / cqm=0 / deadzone=21,11 / fast_pskip=1 / chroma_qp_offset=-2 / threads=4 / sliced_threads=0 / nr=0 / decimate=1 / mbaff=0 / constrained_intra=0 / bframes=3 / b_pyramid=0 / b_adapt=1 / b_bias=0 / direct=1 / wpredb=1 / wpredp=2 / keyint=250 / keyint_min=25 / scenecut=40 / rc_lookahead=40 / rc=abr / mbtree=1 / bitrate=3584 / ratetol=1.0 / qcomp=0.60 / qpmin=10 / qpmax=51 / qpstep=4 / ip_ratio=1.40 / aq=1:1.00
Language : English
Default : No
Forced : No

Audio #1
ID : 2
Format : DTS
Format/Info : Digital Theater Systems
Codec ID : A_DTS
Duration : 1 h 31 min
Bit rate mode : Constant
Bit rate : 1 509 kb/s
Channel(s) : 6 channels
Channel layout : C L R Ls Rs LFE
Sampling rate : 48.0 kHz
Frame rate : 93.750 FPS (512 SPF)
Bit depth : 24 bits
Compression mode : Lossy
Stream size : 986 MiB (28%)
Title : DTS-CORE 1536K
Language : English
Default : Yes
Forced : No

Audio #2
ID : 3
Format : AC-3
Format/Info : Audio Coding 3
Commercial name : Dolby Digital
Codec ID : A_AC3
Duration : 1 h 31 min
Bit rate mode : Constant
Bit rate : 448 kb/s
Channel(s) : 6 channels
Channel layout : L R C LFE Ls Rs
Sampling rate : 48.0 kHz
Frame rate : 31.250 FPS (1536 SPF)
Bit depth : 16 bits
Compression mode : Lossy
Delay relative to video : 28 ms
Stream size : 293 MiB (8%)
Title : [THAI AC3 FROM DVD MASTER]
Language : Thai
Service kind : Complete Main
Default : No
Forced : No

Text #1
ID : 4
Format : VobSub
Muxing mode : zlib
Codec ID : S_VOBSUB
Codec ID/Info : Picture based subtitle format used on DVDs
Title : [SUB THAI FROM DVD MASTER]
Language : Thai
Default : Yes
Forced : No

Text #2
ID : 5
Format : VobSub
Muxing mode : zlib
Codec ID : S_VOBSUB
Codec ID/Info : Picture based subtitle format used on DVDs
Title : [SUB ENG FROM DVD MASTER]
Language : English
Default : No
Forced : No

Text #3
ID : 6
Format : VobSub
Muxing mode : zlib
Codec ID : S_VOBSUB
Codec ID/Info : Picture based subtitle format used on DVDs
Title : SUB THAI 480p by illvp
Language : Thai
Default : No
Forced : No

Text #4
ID : 7
Format : VobSub
Muxing mode : zlib
Codec ID : S_VOBSUB
Codec ID/Info : Picture based subtitle format used on DVDs
Title : SUB THAI 1080p by illvp
Language : Thai
Default : No
Forced : No

Text #5
ID : 8
Format : UTF-8
Codec ID : S_TEXT/UTF8
Codec ID/Info : UTF-8 Plain Text
Title : ENG SRT
Language : English
Default : No
Forced : No

DOWNLOAD


PART01 |||| PART02 |||| PART03 |||| PART04

PART01 |||| PART02 |||| PART03 |||| PART04

PART01 |||| PART02 |||| PART03 |||| PART04

PART01 |||| PART02 |||| PART03 |||| PART04


1 Comment
  1. Boydm Lion
    Boydm Lion says

    ขอบคุณครับบ

Leave A Reply

Your email address will not be published.