โหลดหนัง HD MINI-HD SUPER-HQ Full-HD 1080p VIP Master Zoom ซูม หนังใหม่ ออนไลน์ มาสเตอร์ ไทย จีน ฝรั่ง การ์ตูน

[MINI-HD] Shark Tale (2004) เรื่องของปลาจอมวุ่นชุลมุนป่วนสมุทร [1080p] [พากย์ไทย 5.1 + เสียงอังกฤษ 5.1] [บรรยายอังกฤษ] [เสียงไทย + ซับอังกฤษ] [OPENLOAD]

0

โหลดหนัง Shark Tale (2004) เรื่องของปลาจอมวุ่นชุลมุนป่วนสมุทร 

เรื่องย่อ Shark Tale (2004) เรื่องของปลาจอมวุ่นชุลมุนป่วนสมุทร

ออสการ์ ปลาตัวน้อยที่ทำหน้าที่เป็นผู้ขัดลิ้น อันต่ำต้อยในอู่ทำความสะอาดปลาวาฬได้กลายเป็นฮีโร่ อย่างไม่น่าเป็นไปได้เมื่อเขาโกหกคำโต ในความพยายามที่จะเก็บความลับสุดยอดนี้ให้ได้ ออสการ์ได้ร่วมทีมกับฉลามขาวมังสวิรัติที่ไม่มีใครคบ นามว่า เลนนี่ และทั้งสองได้กลายเป็นเพื่อนคู่ซี้ที่ไม่เหมือนใคร และไม่มีใครเหมือน แต่แล้วเมื่อความลับใกล้ถูกเปิดเผย ออสการ์และเพื่อนๆ ผู้ซื่อสัตย์ของเขา แองจี้ และ เลนนี่ ต้องช่วยกันต่อสู้ กับฉลามผู้โหดร้าย และร่วมกันค้นหาบ้าน ที่แท้จริงในทะเลอันกว้างใหญ่ให้กับออสการ์

Complete name : [MINI-HD]_Shark.Tale.2004.1080p.BrRip.AC3.x264.One2loadup.com.mkv
Format : Matroska
Format version : Version 4
File size : 3.57 GiB
Duration : 1 h 29 min
Overall bit rate : 5 692 kb/s
Movie name : [MINI-HD]_Shark.Tale.2004.1080p.BrRip.AC3.x264.One2loadup.com
Encoded date : UTC 2017-01-10 17:14:54
Writing application : mkvmerge v6.0.0 (‘Coming Up For Air’) built on Jan 20 2013 09:52:00
Writing library : libebml v1.3.0 + libmatroska v1.4.0

Video
ID : 1
Format : AVC
Format/Info : Advanced Video Codec
Format profile : [email protected]
Format settings : 3 Ref Frames
Format settings, CABAC : No
Format settings, ReFrames : 3 frames
Format settings, GOP : N=1
Codec ID : V_MPEG4/ISO/AVC
Duration : 1 h 29 min
Bit rate : 4 811 kb/s
Width : 1 916 pixels
Height : 1 076 pixels
Display aspect ratio : 16:9
Frame rate mode : Constant
Frame rate : 23.976 FPS
Color space : YUV
Chroma subsampling : 4:2:0
Bit depth : 8 bits
Scan type : Progressive
Bits/(Pixel*Frame) : 0.097
Stream size : 3.01 GiB (85%)
Title : [MINI-HD]_Shark.Tale.2004.1080p.BrRip.AC3.x264.One2loadup.com
Writing library : x264 core 135
Encoding settings : cabac=0 / ref=3 / deblock=1:0:0 / analyse=0x1:0x11 / me=hex / subme=7 / psy=1 / psy_rd=1.00:0.00 / mixed_ref=1 / me_range=16 / chroma_me=0 / trellis=2 / 8x8dct=0 / cqm=0 / deadzone=21,11 / fast_pskip=1 / chroma_qp_offset=-2 / threads=3 / lookahead_threads=1 / sliced_threads=0 / nr=0 / decimate=1 / interlaced=0 / bluray_compat=0 / constrained_intra=0 / bframes=0 / weightp=0 / keyint=300 / keyint_min=25 / scenecut=40 / intra_refresh=0 / rc_lookahead=40 / rc=crf / mbtree=1 / crf=22.0 / qcomp=0.60 / qpmin=10 / qpmax=51 / qpstep=4 / ip_ratio=1.40 / aq=1:1.00
Default : Yes
Forced : No

Audio #1
ID : 2
Format : AC-3
Format/Info : Audio Coding 3
Commercial name : Dolby Digital
Codec ID : A_AC3
Duration : 1 h 29 min
Bit rate mode : Constant
Bit rate : 384 kb/s
Channel(s) : 6 channels
Channel layout : L R C LFE Ls Rs
Sampling rate : 48.0 kHz
Frame rate : 31.250 FPS (1536 SPF)
Bit depth : 16 bits
Compression mode : Lossy
Stream size : 246 MiB (7%)
Title : Eng
Language : English
Service kind : Complete Main
Default : Yes
Forced : No

Audio #2
ID : 3
Format : AC-3
Format/Info : Audio Coding 3
Commercial name : Dolby Digital
Codec ID : A_AC3
Duration : 1 h 29 min
Bit rate mode : Constant
Bit rate : 384 kb/s
Channel(s) : 6 channels
Channel layout : L R C LFE Ls Rs
Sampling rate : 48.0 kHz
Frame rate : 31.250 FPS (1536 SPF)
Bit depth : 16 bits
Compression mode : Lossy
Stream size : 246 MiB (7%)
Title : th
Language : Thai
Service kind : Complete Main
Default : No
Forced : No

Text
ID : 4
Format : UTF-8
Codec ID : S_TEXT/UTF8
Codec ID/Info : UTF-8 Plain Text
Title : Eng
Language : English
Default : Yes
Forced : No

DOWNLOAD


PART01 |||| PART02 |||| PART03 |||| PART04

PART01 |||| PART02 |||| PART03 |||| PART04

PART01 |||| PART02 |||| PART03 |||| PART04

PART01 |||| PART02 |||| PART03 |||| PART04


Leave A Reply

Your email address will not be published.

%d bloggers like this: