[MINI-HD] Saint Laurent (2014) แซงค์ โรลองค์ แฟชั่น เขย่าโลก [720p] [พากย์ไทย 5.1] [DVDRip] [ไม่มีบรรยาย] [เสียงไทย] [OPENLOAD]

0

โหลดหนัง Saint Laurent (2014) แซงค์ โรลองค์ แฟชั่น เขย่าโลก

Saint Laurent (2014) 2h 30min | Biography, Drama, Romance | 24 September 2014 (France) Summary: Yves Saint Laurent's life from 1967 to 1976, during which time the famed fashion designer was at the peak of his career.
Countries: France, BelgiumLanguages: French, English

เรื่องย่อ Saint Laurent (2014) แซงค์ โรลองค์ แฟชั่น เขย่าโลก

ภาพยนตร์ Saint Laurent (แซงค์ โรลองค์) เข้าฉายในสายประกวดหลักชิงรางวัลปาล์มทองคำ ของเทศกาลภาพยนตร์เมืองคานส์ 2014 ผลงานการกำกับของ เบอร์ตรอง โบเนลโล ที่ได้ กัสปาร์ อุลลิแอล นักแสดงมากฝีมือหล่อเซอร์ ชาวฝรั่งเศส มารับบท แซงต์ โลรองต์ อัจฉริยะผู้เป็นดั่งศาสดาของวงการแฟชั่น เขาเติบโตมาในครอบครัวที่ร่ำรวย ถูกห้อมล้อมด้วยความรักจากแม่และพี่สาว พออายุได้ 17 ปี ก็ชนะรางวัลในการแข่งขันการดีไซน์ระดับโลก อายุ 20 ก็เริ่มต้นทำงานกับ DIOR อายุ 22 เขาสร้างคอลเลคชั่นใหม่ให้ดิออร์กลับมาเป็นแบรนด์ระด ับโลกอีกครั้ง จนกระทั่งกลายเป็นที่รู้จักไปทั่วโลกตอนอายุ 25 เมื่อเขาสร้างแบรนด์ อีฟ แซงต์ โรลองต์ ของตัวเอง

Complete name : [MINI-HD]_Saint.Laurent.2014.720p.DVDRip.AC3.x264.One2loadup.com.mkv
Format : Matroska
Format version : Version 4
File size : 1.43 GiB
Duration : 2 h 24 min
Overall bit rate : 1 416 kb/s
Movie name : [MINI-HD]_Saint.Laurent.2014.720p.DVDRip.AC3.x264.One2loadup.com
Encoded date : UTC 2015-03-04 07:38:06
Writing application : mkvmerge v7.2.0 (‘On Every Street’) 64bit built on Sep 13 2014 15:52:10
Writing library : libebml v1.3.0 + libmatroska v1.4.1

Video
ID : 1
Format : AVC
Format/Info : Advanced Video Codec
Format profile : [email protected]
Format settings : CABAC / 4 Ref Frames
Format settings, CABAC : Yes
Format settings, ReFrames : 4 frames
Codec ID : V_MPEG4/ISO/AVC
Duration : 2 h 24 min
Bit rate : 1 004 kb/s
Nominal bit rate : 1 599 kb/s
Width : 720 pixels
Height : 388 pixels
Display aspect ratio : 1.85:1
Frame rate mode : Constant
Frame rate : 25.000 FPS
Color space : YUV
Chroma subsampling : 4:2:0
Bit depth : 8 bits
Scan type : Progressive
Bits/(Pixel*Frame) : 0.144
Stream size : 1.01 GiB (71%)
Title : [MINI-HD]_Saint.Laurent.2014.720p.DVDRip.AC3.x264.One2loadup.com
Writing library : x264 core 130 r2273 b3065e6
Encoding settings : cabac=1 / ref=3 / deblock=1:0:0 / analyse=0x3:0x113 / me=hex / subme=7 / psy=1 / psy_rd=1.00:0.00 / mixed_ref=1 / me_range=16 / chroma_me=1 / trellis=1 / 8x8dct=1 / cqm=0 / deadzone=21,11 / fast_pskip=1 / chroma_qp_offset=-2 / threads=6 / lookahead_threads=1 / sliced_threads=0 / nr=0 / decimate=1 / interlaced=0 / bluray_compat=0 / constrained_intra=0 / bframes=3 / b_pyramid=2 / b_adapt=1 / b_bias=0 / direct=1 / weightb=1 / open_gop=0 / weightp=2 / keyint=240 / keyint_min=24 / scenecut=40 / intra_refresh=0 / rc_lookahead=40 / rc=2pass / mbtree=1 / bitrate=1599 / ratetol=1.0 / qcomp=0.60 / qpmin=0 / qpmax=69 / qpstep=4 / cplxblur=20.0 / qblur=0.5 / vbv_maxrate=62500 / vbv_bufsize=78125 / nal_hrd=none / ip_ratio=1.40 / aq=1:1.00
Language : French
Default : Yes
Forced : No
Color range : Limited
Color primaries : BT.601 PAL
Transfer characteristics : BT.709
Matrix coefficients : BT.601

Audio
ID : 2
Format : AC-3
Format/Info : Audio Coding 3
Commercial name : Dolby Digital
Codec ID : A_AC3
Duration : 2 h 24 min
Bit rate mode : Constant
Bit rate : 384 kb/s
Channel(s) : 6 channels
Channel layout : L R C LFE Ls Rs
Sampling rate : 48.0 kHz
Frame rate : 31.250 FPS (1536 SPF)
Bit depth : 16 bits
Compression mode : Lossy
Stream size : 397 MiB (27%)
Title : AC3
Language : Thai
Service kind : Complete Main
Default : Yes
Forced : Yes

DOWNLOAD


PART01 |||| PART02

PART01 |||| PART02

PART01 |||| PART02

PART01 |||| PART02


Leave A Reply

Your email address will not be published.