[MINI-HD] Ruby Sparks (2012) เขียนเธอให้เจอผม [1080p] [พากย์ไทย 5.1 + เสียงอังกฤษ DTS] [บรรยายไทย + อังกฤษ] [เสียงไทย + ซับไทย] [OPENLOAD]

0

Ruby Sparks (2012)

โหลดหนัง Ruby Sparks (2012) เขียนเธอให้เจอผม

Ruby Sparks (2012) 1h 44min | Comedy, Drama, Fantasy | 6 September 2012 (Portugal) Summary: A novelist struggling with writer's block finds romance in a most unusual way: by creating a female character he thinks will love him, then willing her into existence.
Countries: USALanguages: English, French

เรื่องย่อ Ruby Sparks (2012) เขียนเธอให้เจอผม

คาลวิน เวียร์ ฟิลด์ส [Paul Dano] เป็นหนุ่มนักเขียนดาวรุ่งระดับอัจฉริยะเพราะแม้ว่าเค้าจะอายุยังน้อยแต่เค้าก็สามารถเขียนหนังสือจนโด่งดังเป็นพลุแตกได้ แต่คาลวินก็ต้องพบกับปัญหามากมายเพราะเค้าไม่สามารถเ ข้าสังคมได้ เค้ากลายเป็นคนปิดตัวเองจากโลกภายนอกโดยมีอาการตั้งแ ต่ที่คาลวินเลิกรากับ ไลล่า [Deborah Ann Woll] แฟนคนแรกและคนเดียวในชีวิตเค้าที่ผ่านมาทำให้คาลวินต ้องเข้าบำบัดอาการนี้กับ คุณหมอโรเซนธอล [Elliott Gould] จิตแพทย์ประจำตัวเค้าอยู่บ่อยครั้งซึ่งมันก็ส่งผลกระทบอย่างมากเพราะทำให้คาลวินไม่สามารถที่จะเขียนหนังสือเล่มใหม่ได้

ในค่ำคืนหนึ่งคาลวินฝันถึงหญิงสาวคนหนึ่งที่เป็นผู้หญิงที่ตรงตามสเป็กของเค้าทุกอย่าง เค้าเริ่มฝันถึงเธอบ่อยขึ้นจนไม่สามารถเก็บความรู้สึกที่มีต่อเธอไว้ได้เค้านำเอาความรู้สึกที่มีต่อเธอทั้งหมดนั้นมาเขียนเป็นหนังสือเล่มใหม่ของเค้าโดยคาลวินตั้งชื่อนางในฝันของเค้าว่า รูบี้ สปาร์คส์ [Zoe Kazan] และสิ่งไม่คาดฝันก็เกิดขึ้นเมื่อเช้าวันหนึ่งคาลวินตื่นมาและได้พบกับรูบี้นางในฝันของเค้าที่เกิดมีชีวิต ขึ้นจริงทำให้คาลวินแทบช๊อคแต่ก็รู้สึกดีใจอย่างมากในเวลาเดียวกันและเรื่องราวทุกอย่างในชีวิตของสาวน้อย อย่างรูบี้คือสิ่งที่เกิดจากปลายนิ้วของคาลวินแต่งเรื่องราวต่าง ๆ ขึ้นนั่นหมายถึงรูบี้คือแฟนสาวที่คาลวินสร้างขึ้นเองจากความต้องการของเค้า

แต่ความรักที่แสนหวานตามความต้องการของคาลวินก็ต้องมีเหตุสะดุดลงเมื่อรูบี้เริ่มมีความคิดอ่านเป็นของตนเองแต่ทุกครั้งเมื่อคาลวินรู้สึกไม่พอใจนิสัยเรื่องใด ของรูบี้เค้าก็จะเขียนนิสัยของรูบี้ขึ้นมาใหม่ตามความต้องการของเค้า และมันทำให้รูบี้เริ่มรู้สึกอึดอัดและไม่มีความสุขในชีวิตจากนิสัยที่คิดว่าตัวเองเป็นศูนย์กลางจักรวาลของคาลวินและมันทำให้ทั้งสองคนเกิดมีปากเสียงทะเลาะกัน อย่างหนักจนคาลวินรู้สึกโกรธและได้เขียนให้รูบี้หายไปจากชีวิตของเค้าแต่การกระทำนี้ก็ทำให้คาลวินรู้สึกผิดและสับสนอย่างม าก เพราะความจริงคือเค้ารักรูบี้มากแต่เพราะต้องการให้เธอเป็นนางในฝันในอุดมคติที่เค้าใฝ่ฝัน แต่คาลวินลืมบางสิ่งบางอย่างที่สำคัญและเป็นความจริง ในชีวิต ความจริงที่ว่าไม่มีใครที่เกิดมาเป็นคนสมบูรณ์แบบและ จะเป็นที่ต้องการของทุกคน ความรักความเข้าใจและยอมรับในตัวตนที่แท้จริงต่างหาก คือสิ่งที่คนรักกันควรจะมี !!!

Complete name : [MINI-HD]_Ruby.Sparks.2012.1080p.BDRip.DTS.x264.One2loadup.com.mkv
Format : Matroska
Format version : Version 4
File size : 3.43 GiB
Duration : 1 h 43 min
Overall bit rate : 4 728 kb/s
Movie name : [MINI-HD]_Ruby.Sparks.2012.1080p.BDRip.DTS.x264.One2loadup.com.mkv
Encoded date : UTC 2010-02-22 21:41:31
Writing application : mkvmerge v5.9.0 (‘On The Loose’) built on Dec 9 2012 15:37:01
Writing library : libebml v1.3.0 + libmatroska v1.4.0

Video
ID : 1
Format : AVC
Format/Info : Advanced Video Codec
Format profile : [email protected]
Format settings : CABAC / 4 Ref Frames
Format settings, CABAC : Yes
Format settings, ReFrames : 4 frames
Muxing mode : Header stripping
Codec ID : V_MPEG4/ISO/AVC
Duration : 1 h 43 min
Nominal bit rate : 2 746 kb/s
Width : 1 920 pixels
Height : 1 040 pixels
Display aspect ratio : 1.85:1
Frame rate mode : Constant
Frame rate : 23.976 (24000/1001) FPS
Color space : YUV
Chroma subsampling : 4:2:0
Bit depth : 8 bits
Scan type : Progressive
Bits/(Pixel*Frame) : 0.057
Title : [MINI-HD]_Ruby.Sparks.2012.1080p.BDRip.DTS.x264.One2loadup.com.mkv
Writing library : x264 core 130 r2273 b3065e6
Encoding settings : cabac=1 / ref=4 / deblock=1:0:0 / analyse=0x3:0x133 / me=umh / subme=7 / psy=1 / psy_rd=1.00:0.00 / mixed_ref=1 / me_range=24 / chroma_me=1 / trellis=1 / 8x8dct=1 / cqm=0 / deadzone=21,11 / fast_pskip=1 / chroma_qp_offset=-2 / threads=6 / lookahead_threads=1 / sliced_threads=0 / nr=0 / decimate=1 / interlaced=0 / bluray_compat=0 / constrained_intra=0 / bframes=4 / b_pyramid=2 / b_adapt=2 / b_bias=0 / direct=1 / weightb=1 / open_gop=0 / weightp=2 / keyint=240 / keyint_min=24 / scenecut=40 / intra_refresh=0 / rc_lookahead=40 / rc=abr / mbtree=1 / bitrate=2746 / ratetol=1.0 / qcomp=0.60 / qpmin=0 / qpmax=69 / qpstep=4 / ip_ratio=1.40 / aq=1:1.00
Language : English
Default : Yes
Forced : No
Color range : Limited
Color primaries : BT.709
Transfer characteristics : BT.709
Matrix coefficients : BT.709

Audio #1
ID : 2
Format : AC-3
Format/Info : Audio Coding 3
Commercial name : Dolby Digital
Muxing mode : Header stripping
Codec ID : A_AC3
Duration : 1 h 43 min
Bit rate mode : Constant
Bit rate : 448 kb/s
Channel(s) : 6 channels
Channel layout : L R C LFE Ls Rs
Sampling rate : 48.0 kHz
Frame rate : 31.250 FPS (1536 SPF)
Bit depth : 16 bits
Compression mode : Lossy
Stream size : 333 MiB (9%)
Title : Thai 5.1 [448 Kbps] AC.3 From DVD Master.
Language : Thai
Service kind : Complete Main
Default : Yes
Forced : No

Audio #2
ID : 3
Format : DTS
Format/Info : Digital Theater Systems
Muxing mode : Header stripping
Codec ID : A_DTS
Duration : 1 h 43 min
Bit rate mode : Constant
Bit rate : 1 509 kb/s
Channel(s) : 6 channels
Channel layout : C L R Ls Rs LFE
Sampling rate : 48.0 kHz
Frame rate : 93.750 FPS (512 SPF)
Bit depth : 24 bits
Compression mode : Lossy
Stream size : 1.10 GiB (32%)
Title : English DTS. [1509 Kbps] From Bluray.
Language : English
Default : No
Forced : No

Audio #3
ID : 4
Format : AAC LC
Format/Info : Advanced Audio Codec Low Complexity
Codec ID : A_AAC-2
Duration : 1 h 43 min
Channel(s) : 2 channels
Channel layout : L R
Sampling rate : 48.0 kHz
Frame rate : 46.875 FPS (1024 SPF)
Compression mode : Lossy
Title : English AAC. 2.0
Language : English
Default : No
Forced : No

Text #1
ID : 5
Format : VobSub
Muxing mode : zlib
Codec ID : S_VOBSUB
Codec ID/Info : Picture based subtitle format used on DVDs
Title : Thai 480p.
Language : Thai
Default : No
Forced : No

Text #2
ID : 6
Format : VobSub
Muxing mode : zlib
Codec ID : S_VOBSUB
Codec ID/Info : Picture based subtitle format used on DVDs
Title : Thai 1080p.
Language : Thai
Default : No
Forced : No

Text #3
ID : 7
Format : UTF-8
Codec ID : S_TEXT/UTF8
Codec ID/Info : UTF-8 Plain Text
Title : English SRT.
Language : English
Default : No
Forced : No

DOWNLOAD


PART01 |||| PART02 |||| PART03 |||| PART04

PART01 |||| PART02 |||| PART03 |||| PART04

PART01 |||| PART02 |||| PART03 |||| PART04

PART01 |||| PART02 |||| PART03 |||| PART04


Leave A Reply

Your email address will not be published.