เว็บโหลดหนัง HD MINI-HD SUPER-HQ Full-HD 1080p One2up VIP Mekafile Master Zoom ซูม หนังใหม่ ออนไลน์ มาสเตอร์ ไทย จีน ฝรั่ง การ์ตูน

[MINI-HD] Ned Kelly (2003) เน็ด เคลลี่…วีรบุรุษแดนเถื่อน [1080p] [พากย์ไทย 5.1 + อังกฤษ DTS] [บรรยายไทย + อังกฤษ] [เสียงไทย + ซับไทย] [ONE2UP]

0

โหลดหนัง  Ned Kelly (2003) เน็ด เคลลี่…วีรบุรุษแดนเถื่อน

เรื่องย่อ Ned Kelly (2003) เน็ด เคลลี่…วีรบุรุษแดนเถื่อน

ตำนานการต่อสู้อัน ยิ่งใหญ่ที่สร้างมาจากเรื่องจริงของเหล่าจอมโจรฮีโร่ ที่ต่อต้านกฎหมายและสร้างแรงกระตุ้นเดียวกันให้กับผู ้คนที่เหลือ รับบทนำโดย ฮีท เลดเจอร์ (The Four Feathers, A Knight s Tale) ผู้ซึ่งแสดงเป็น เน็ด เคลลี่ และถ่ายทอดอารมณ์อันแรงกล้าได้อย่างสมจริงที่สุด เขาเป็นผู้กล้าที่ถูกบังคับให้ต่อสู้กับเหล่าเจ้าหน้ าที่บ้านเมืองที่คอยกดขี่ข่มเหงประชาชน อีกหนึ่งบุรุษที่มาร่วมแก๊งค์ของเน็ด คือเพื่อนรักของเขา โจ หนุ่มรูปหล่อเสน่ห์แรงแต่แฝงไว้ด้วยความร้ายกาจรับบท โดย ออลันโด้ บลูม (Troy, Pirates of the Caribbean: The Curse of the Black Pearl) และสาวเซ็กซี่ผู้ถูกเสนอชื่อเข้าชิงรางวัล Oscar นาโอมิ วัตต์ส (21 Grams, The Ring) เป็นคู่รักของเน็ด นามว่า จูเลีย เพียงชั่วข้ามคืน แก๊งค์เคลลี่ได้กลายเป็นฮีโร่ของเหล่าประชาชน แต่ยิ่ง ชื่อเสียงของพวกเขาไปไกลเท่าไหร่ พวกเขากลับกลายเป็นเป้าสำหรับผู้พิทักษ์กฎหมายสุดอำม หิต (เจ๊ฟฟรีย์ รัช) ง่ายยิ่งขึ้นเท่านั้น และเขาผู้นี้เองที่ทำให้เหล่าจอมโจรฮีโร่กลายเป็น ที่ต้องการตัวมากที่สุดของโลก

Complete name : [MINI-HD]_Ned.Kelly.2003.1080p.DTS.BDRip.x264.One2loadup.com.mkv
Format : Matroska
Format version : Version 4 / Version 2
File size : 3.26 GiB
Duration : 1 h 49 min
Overall bit rate : 4 251 kb/s
Movie name : [MINI-HD]_Ned.Kelly.2003.1080p.DTS.BDRip.x264.One2loadup.com
Encoded date : UTC 2014-02-15 04:43:38
Writing application : mkvmerge v6.0.0 (‘Coming Up For Air’) built on Jan 20 2013 09:52:00
Writing library : libebml v1.3.0 + libmatroska v1.4.0

Video
ID : 1
Format : AVC
Format/Info : Advanced Video Codec
Format profile : [email protected]
Format settings, CABAC : Yes
Format settings, RefFrames : 5 frames
Codec ID : V_MPEG4/ISO/AVC
Duration : 1 h 49 min
Bit rate : 3 000 kb/s
Width : 1 920 pixels
Height : 816 pixels
Display aspect ratio : 2.35:1
Frame rate mode : Constant
Frame rate : 23.976 (24000/1001) FPS
Color space : YUV
Chroma subsampling : 4:2:0
Bit depth : 8 bits
Scan type : Progressive
Bits/(Pixel*Frame) : 0.080
Stream size : 2.28 GiB (70%)
Title : [MINI-HD]_Ned.Kelly.2003.1080p.DTS.BDRip.x264.One2loadup.com
Writing library : x264 core 116 r2019M 9cc407d
Encoding settings : cabac=1 / ref=6 / deblock=1:-1:-1 / analyse=0x3:0x133 / me=hex / subme=7 / psy=1 / psy_rd=1.00:0.15 / mixed_ref=1 / me_range=16 / chroma_me=1 / trellis=1 / 8x8dct=1 / cqm=0 / deadzone=21,11 / fast_pskip=1 / chroma_qp_offset=-3 / threads=8 / sliced_threads=0 / nr=0 / decimate=1 / interlaced=0 / bluray_compat=0 / constrained_intra=0 / bframes=3 / b_pyramid=1 / b_adapt=2 / b_bias=0 / direct=3 / weightb=1 / open_gop=0 / weightp=2 / keyint=230 / keyint_min=23 / scenecut=40 / intra_refresh=0 / rc_lookahead=40 / rc=2pass / mbtree=1 / bitrate=3000 / ratetol=1.0 / qcomp=0.60 / qpmin=10 / qpmax=51 / qpstep=4 / cplxblur=20.0 / qblur=0.5 / vbv_maxrate=31250 / vbv_bufsize=62500 / nal_hrd=none / ip_ratio=1.40 / aq=1:1.00
Language : English
Default : Yes
Forced : No

Audio #1
ID : 2
Format : AC-3
Format/Info : Audio Coding 3
Format settings, Endianness : Big
Codec ID : A_AC3
Duration : 1 h 49 min
Bit rate mode : Constant
Bit rate : 448 kb/s
Channel(s) : 6 channels
Channel positions : Front: L C R, Side: L R, LFE
Sampling rate : 48.0 kHz
Frame rate : 31.250 FPS (1536 SPF)
Bit depth : 16 bits
Compression mode : Lossy
Stream size : 352 MiB (11%)
Title : TH 5.1 FIXED
Language : Thai
Service kind : Complete Main
Default : Yes
Forced : Yes

Audio #2
ID : 3
Format : DTS
Format/Info : Digital Theater Systems
Mode : 16
Format settings, Endianness : Big
Codec ID : A_DTS
Duration : 1 h 49 min
Bit rate mode : Constant
Bit rate : 755 kb/s
Channel(s) : 6 channels
Channel positions : Front: L C R, Side: L R, LFE
Sampling rate : 48.0 kHz
Frame rate : 93.750 FPS (512 SPF)
Bit depth : 24 bits
Compression mode : Lossy
Stream size : 593 MiB (18%)
Title : EN DTS
Language : English
Default : No
Forced : No

Text #1
ID : 4
Format : VobSub
Codec ID : S_VOBSUB
Codec ID/Info : Picture based subtitle format used on DVDs
Title : TH DVD
Language : Thai
Default : No
Forced : No

Text #2
ID : 5
Format : VobSub
Codec ID : S_VOBSUB
Codec ID/Info : Picture based subtitle format used on DVDs
Title : TH 480P
Language : Thai
Default : No
Forced : No

Text #3
ID : 6
Format : VobSub
Codec ID : S_VOBSUB
Codec ID/Info : Picture based subtitle format used on DVDs
Title : TH 1080P
Language : Thai
Default : Yes
Forced : Yes

Text #4
ID : 7
Format : UTF-8
Codec ID : S_TEXT/UTF8
Codec ID/Info : UTF-8 Plain Text
Title : EN SRT
Language : English
Default : No
Forced : No

Text #5
ID : 8
Format : UTF-8
Codec ID : S_TEXT/UTF8
Codec ID/Info : UTF-8 Plain Text
Title : TH OCR FIXED BY SAKWOR
Language : Thai
Default : No
Forced : No

Text #6
ID : 9
Format : PGS
Codec ID : S_HDMV/PGS
Codec ID/Info : Picture based subtitle format used on BDs/HD-DVDs
Title : TH PGS
Language : Thai
Default : No
Forced : No

Text #7
ID : 10
Format : PGS
Codec ID : S_HDMV/PGS
Codec ID/Info : Picture based subtitle format used on BDs/HD-DVDs
Title : TH PGS UNDER
Language : Thai
Default : No
Forced : No

 

VIP โหลดไม่ได้แจ้งที่แชททางขวามือเลยจ้า


PART01 |||| PART02 |||| PART03 |||| PART04

PART01 |||| PART02 |||| PART03 |||| PART04

PART01 |||| PART02 |||| PART03 |||| PART04

PART01 |||| PART02 |||| PART03 |||| PART04


Leave A Reply

Your email address will not be published.

%d bloggers like this: