โหลดหนัง HD MINI-HD SUPER-HQ Full-HD 1080p VIP Master Zoom ซูม หนังใหม่ ออนไลน์ มาสเตอร์ ไทย จีน ฝรั่ง การ์ตูน

[MINI-HD] Nang Nak (1999) นางนาก [1080p] [พากย์ไทย 2.0] [หนังไทยเก่าๆ] [ไม่มีบรรยาย] [เสียงไทย] [OPENLOAD]

0

โหลดหนัง  Nang Nak (1999) นางนาก

เรื่องย่อ Nang Nak (1999) นางนาก

เหตุเกิดในสมัยรัชกาลที่ 4 มาก (รับบทโดย วินัย ไกรบุตร) ถูกเกณฑ์ไปเป็นทหารที่ชายแดน จำต้องปล่อยให้ นาก (รับบทโดย ทราย เจริญปุระ) เมียท้องแก่อยู่ทำนาเพียงลำพังด้วยความยากลำบาก เมื่อเจ็บท้องคลอด…นากได้เสียชีวิตลงพร้อมลูกในท้อง หากแต่วิญญาณของเธอยังคงวนเวียนอยู่ที่บ้าน จนกระทั่งมากกลับมาจากสงครามและได้อยู่กินฉันผัวเมียกับวิญญาณของนาก แม้ว่าใครจะเตือนเรื่องที่เมียของเขาตายแล้ว…เขาก็ไม่เชื่อ ซ้ำร้ายวิญญาณของนากยังออกไปหักคอชาวบ้านจนหวาดกลัวและโจษจันถึงความเฮี้ยนไปทั่วทุ่งพระโขนง

Complete name : [MINI-HD]_Nang.Nak.1999.1080p.AC3.x264.One2loadup.com.mkv
Format : Matroska
Format version : Version 2
File size : 3.01 GiB
Duration : 1 h 41 min
Overall bit rate : 4 270 kb/s
Movie name : [MINI-HD]_Nang.Nak.1999.1080p.AC3.x264.One2loadup.com
Encoded date : UTC 2011-04-12 18:45:13
Writing application : mkvmerge v3.0.0 (‘Hang up your Hang-Ups’) built on Dec 15 2009 20:49:37
Writing library : libebml v0.7.9 + libmatroska v0.8.1

Video
ID : 1
Format : AVC
Format/Info : Advanced Video Codec
Format profile : [email protected]
Format settings : CABAC / 3 Ref Frames
Format settings, CABAC : Yes
Format settings, ReFrames : 3 frames
Codec ID : V_MPEG4/ISO/AVC
Duration : 1 h 41 min
Bit rate : 3 884 kb/s
Width : 1 920 pixels
Height : 1 080 pixels
Display aspect ratio : 16:9
Frame rate mode : Constant
Frame rate : 25.000 FPS
Color space : YUV
Chroma subsampling : 4:2:0
Bit depth : 8 bits
Scan type : Progressive
Bits/(Pixel*Frame) : 0.075
Stream size : 2.68 GiB (89%)
Title : [MINI-HD]_Nang.Nak.1999.1080p.AC3.x264.One2loadup.com
Writing library : x264 core 79 r1342kMod e8501ef
Encoding settings : cabac=1 / ref=3 / deblock=1:0:0 / analyse=0x3:0 / me=umh / subme=7 / psy=1 / psy_rd=1.0:0.0 / mixed_ref=0 / me_range=16 / chroma_me=0 / trellis=1 / 8x8dct=1 / cqm=0 / deadzone=21,11 / chroma_qp_offset=-2 / threads=3 / nr=0 / decimate=0 / mbaff=0 / constrained_intra=0 / bframes=3 / b_pyramid=0 / b_adapt=1 / b_bias=0 / direct=3 / wpredb=1 / wpredp=2 / keyint=250 / keyint_min=25 / scenecut=40 / rc_lookahead=40 / rc=2pass / mbtree=1 / bitrate=3884 / ratetol=1.0 / qcomp=0.60 / qpmin=10 / qpmax=51 / qpstep=4 / cplxblur=20.0 / qblur=0.5 / ip_ratio=1.40 / aq=1:1.00
Default : Yes
Forced : No

Audio
ID : 2
Format : AC-3
Format/Info : Audio Coding 3
Commercial name : Dolby Digital
Codec ID : A_AC3
Duration : 1 h 41 min
Bit rate mode : Constant
Bit rate : 384 kb/s
Channel(s) : 2 channels
Channel layout : L R
Sampling rate : 48.0 kHz
Frame rate : 31.250 FPS (1536 SPF)
Bit depth : 16 bits
Compression mode : Lossy
Stream size : 278 MiB (9%)
Service kind : Complete Main
Default : Yes
Forced : No

DOWNLOAD


PART01 |||| PART02 |||| PART03 |||| PART04

PART01 |||| PART02 |||| PART03 |||| PART04

PART01 |||| PART02 |||| PART03 |||| PART04

PART01 |||| PART02 |||| PART03 |||| PART04


Leave A Reply

Your email address will not be published.

%d bloggers like this: