[MINI-HD] Miss Congeniality 2: Armed & Fabulous (2005) พยักฆ์สาวนางงามยุกยิก ภาค 2 [1080p] [พากย์ไทย 5.1 + เสียงอังกฤษ DTS] [บรรยายไทย + อังกฤษ] [เสียงไทย + ซับไทย] [PANDAFILE]

0

โหลดหนัง Miss Congeniality 2: Armed & Fabulous (2005) พยักฆ์สาวนางงามยุกยิก ภาค 2

Miss Undercover 2 (2005) 1h 55min | Action, Comedy, Crime | 24 March 2005 (Germany) Summary: After Cheryl Frasier and Stan Fields are kidnapped, Gracie goes undercover in Las Vegas to find them.
Countries: USALanguages: English

เรื่องย่อ Miss Congeniality 2: Armed & Fabulous (2005) พยักฆ์สาวนางงามยุกยิก ภาค 2

หลังจากที่เจ้าหน้าที่เอฟบีไอ เกรซี่ ฮาท (แซนดร้า บูลล็อค) ประสบความสำเร็จกับการกู้สถานการณ์ขู่ฆ่า ในการประกวดนางงามสหรัฐอเมริกา เมื่อตอนที่เธอปลอมตัวเป็นหนึ่งในผู้เข้าประกวด พักหลังนี้อะไรๆ ไม่ค่อยได้ดังใจเธอเท่าไหร่ เธอเพิ่งฟื้นจากการอกหัก และหงุดหงิดกับชื่อเสียง ซึ่งส่งผลกระทบต่องานในฝันของเธอ เกรซี่ยอมอย่างไม่ค่อยเต็มใจเท่าไหร่ ให้เจ้านายของเธอ เจ้าหน้าที่ แม็คโดนัล (เออร์นี่ ฮัดสัน) มอบหมายงานที่ตอนนี้เป็นงานเดียวที่เธอจะทำได้ ให้เธอรับผิดชอบ นั่นก็คือการเป็น “ทูตตัวแทนของเอฟบีไอ” เพื่อไปปรากฏตัวอย่างสวยสง่าผ่าเผย ในรายการสัมภาษณ์ต่างๆ ซึ่งเป็นประวัติการณ์ครั้งใหญ่ ในแผนการโฆษณาในองค์กร ทางเอฟบีไอจึงพยายามดันให้เธอถ่ายภาพซ้ำแล้วซ้ำอีก เพื่อจำลองเหตุการณ์บนเวทีประกวดนางงาม ให้แก่สาธารณชนที่ชื่นชอบเธอได้ชมกัน โดยอาศัยความช่วยเหลือจากสไตล์ลิสส่วนตัว โจเอล (ไดดริช เบเดอร์) เพื่อขัดเกลาความกระโดกกระเดกของเธอ

แรกๆ เกรซี่ก็ขัดขืนไม่พอใจ แต่ต่อมาเธอก็ปรับตัวเข้ากับความสนใจรอบๆ ข้างได้อย่างดี ซึ่งถึงแม้เวลาจะผ่านไปไม่นาน ก็รู้สึกว่าเธอนั้นจะตีบทแตกมากไปนิดหนึ่ง คู่หูคนใหม่ของเธอคือ แซม ฟูลเลอร์ (เรจิน่า คิง) ซึ่งเป็นเจ้าหน้าที่ที่ทรหด ทะเยอทะยาน แล้วเธอก็ไม่ค่อยชอบขี้หน้าเกรซี่สักเท่าไหร่ ฟูลเลอร์เป็นคนแรกที่เอ่ยปากออกมาว่า ดาวประจำกรมตำรวจคนนี้ กำลังจะกลายเป็นบาร์บี้แห่งเอฟบีไอไปแล้ว วันหนึ่งในขณะที่อยู่ในงานแจกลายเซ็น เกรซี่ตกอกตกใจเมื่อได้รับข่าวว่า เชอร์ริล เฟรเซอร์ (เฮเธอร์ เบิรน์ส) นางงามสหรัฐอเมริกาเพื่อนซี้ของเธอ และพี่เลี้ยงนางงาม สแตน ฟิลด์ส (วิลเลี่ยม แชทเนอร์) ถูกลักพาตัวเรียกค่าไถ่ที่ลาส เวกัส ในขณะที่เดินทางเยี่ยมเยือนพบปะสาธารณชน และทันใดนั้นเอง สัญชาติญาณทุกอย่างที่เธอมีอยู่ ก็กลับเข้าสิงเธออีกครั้ง ทั้งในฐานะเพื่อนและเจ้าหน้าที่เอฟบีไอ เธอรู้ว่าเธอจะต้องออกไปช่วยพวกเขาให้ได้!!

Complete name : [MINI-HD]_Miss.Congeniality.2.Armed.And.Fabulous.2005.1080p.BrRip.DTS.x264.One2loadup.com.mkv
Format : Matroska
Format version : Version 4
File size : 3.61 GiB
Duration : 1 h 55 min
Overall bit rate : 4 481 kb/s
Movie name : [MINI-HD]_Miss.Congeniality.2.Armed.And.Fabulous.2005.1080p.BrRip.DTS.x264.One2loadup.com
Encoded date : UTC 2010-02-22 21:41:31
Writing application : mkvmerge v5.9.0 (‘On The Loose’) built on Dec 9 2012 15:37:01
Writing library : libebml v1.3.0 + libmatroska v1.4.0

Video
ID : 1
Format : AVC
Format/Info : Advanced Video Codec
Format profile : [email protected]
Format settings : CABAC / 4 Ref Frames
Format settings, CABAC : Yes
Format settings, ReFrames : 4 frames
Muxing mode : Header stripping
Codec ID : V_MPEG4/ISO/AVC
Duration : 1 h 55 min
Bit rate : 2 328 kb/s
Nominal bit rate : 2 500 kb/s
Width : 1 920 pixels
Height : 792 pixels
Display aspect ratio : 2.40:1
Frame rate mode : Constant
Frame rate : 23.976 (23976/1000) FPS
Color space : YUV
Chroma subsampling : 4:2:0
Bit depth : 8 bits
Scan type : Progressive
Bits/(Pixel*Frame) : 0.064
Stream size : 1.88 GiB (52%)
Title : [MINI-HD]_Miss.Congeniality.2.Armed.And.Fabulous.2005.1080p.BrRip.DTS.x264.One2loadup.com
Writing library : x264 core 152 r2851M ba24899
Encoding settings : cabac=1 / ref=4 / deblock=1:-1:-1 / analyse=0x3:0x113 / me=umh / subme=9 / psy=1 / psy_rd=1.00:0.15 / mixed_ref=1 / me_range=24 / chroma_me=1 / trellis=2 / 8x8dct=1 / cqm=0 / deadzone=21,11 / fast_pskip=1 / chroma_qp_offset=-3 / threads=32 / lookahead_threads=4 / sliced_threads=0 / nr=0 / decimate=1 / interlaced=0 / bluray_compat=0 / constrained_intra=0 / bframes=3 / b_pyramid=2 / b_adapt=2 / b_bias=0 / direct=3 / weightb=1 / open_gop=0 / weightp=2 / keyint=250 / keyint_min=25 / scenecut=40 / intra_refresh=0 / rc_lookahead=50 / rc=2pass / mbtree=1 / bitrate=2500 / ratetol=1.0 / qcomp=0.60 / qpmin=0 / qpmax=69 / qpstep=4 / cplxblur=20.0 / qblur=0.5 / vbv_maxrate=31250 / vbv_bufsize=31250 / nal_hrd=none / filler=0 / ip_ratio=1.40 / aq=3:1.00
Language : English
Default : Yes
Forced : No

Audio #1
ID : 2
Format : AC-3
Format/Info : Audio Coding 3
Commercial name : Dolby Digital
Muxing mode : Header stripping
Codec ID : A_AC3
Duration : 1 h 55 min
Bit rate mode : Constant
Bit rate : 384 kb/s
Channel(s) : 6 channels
Channel layout : L R C LFE Ls Rs
Sampling rate : 48.0 kHz
Frame rate : 31.250 FPS (1536 SPF)
Bit depth : 16 bits
Compression mode : Lossy
Delay relative to video : 1 s 123 ms
Stream size : 317 MiB (9%)
Title : Thai 5.1
Language : Thai
Service kind : Complete Main
Default : Yes
Forced : Yes

Audio #2
ID : 3
Format : DTS
Format/Info : Digital Theater Systems
Muxing mode : Header stripping
Codec ID : A_DTS
Duration : 1 h 55 min
Bit rate mode : Constant
Bit rate : 1 509 kb/s
Channel(s) : 6 channels
Channel layout : C L R Ls Rs LFE
Sampling rate : 48.0 kHz
Frame rate : 93.750 FPS (512 SPF)
Bit depth : 24 bits
Compression mode : Lossy
Stream size : 1.22 GiB (34%)
Title : English DTS
Language : English
Default : No
Forced : No

Text #1
ID : 4
Format : VobSub
Muxing mode : zlib
Codec ID : S_VOBSUB
Codec ID/Info : Picture based subtitle format used on DVDs
Duration : 1 h 53 min
Bit rate : 11.4 kb/s
Count of elements : 1482
Stream size : 9.30 MiB (0%)
Title : Thai
Language : Thai
Default : No
Forced : No

Text #2
ID : 5
Format : VobSub
Muxing mode : zlib
Codec ID : S_VOBSUB
Codec ID/Info : Picture based subtitle format used on DVDs
Duration : 1 h 53 min
Bit rate : 3 227 b/s
Count of elements : 1482
Stream size : 2.63 MiB (0%)
Title : Thai
Language : Thai
Default : No
Forced : No

Text #3
ID : 6
Format : VobSub
Muxing mode : zlib
Codec ID : S_VOBSUB
Codec ID/Info : Picture based subtitle format used on DVDs
Duration : 1 h 53 min
Bit rate : 11.4 kb/s
Count of elements : 1482
Stream size : 9.29 MiB (0%)
Title : Thai
Language : Thai
Default : No
Forced : No

Text #4
ID : 7
Format : VobSub
Muxing mode : zlib
Codec ID : S_VOBSUB
Codec ID/Info : Picture based subtitle format used on DVDs
Duration : 1 h 53 min
Bit rate : 9 965 b/s
Count of elements : 1482
Stream size : 8.12 MiB (0%)
Title : Thai
Language : Thai
Default : No
Forced : No

Text #5
ID : 8
Format : PGS
Muxing mode : zlib
Codec ID : S_HDMV/PGS
Codec ID/Info : Picture based subtitle format used on BDs/HD-DVDs
Duration : 1 h 53 min
Bit rate : 46.4 kb/s
Count of elements : 2964
Stream size : 37.8 MiB (1%)
Title : Thai PGS
Language : Thai
Default : Yes
Forced : Yes

Text #6
ID : 9
Format : PGS
Muxing mode : zlib
Codec ID : S_HDMV/PGS
Codec ID/Info : Picture based subtitle format used on BDs/HD-DVDs
Duration : 1 h 53 min
Bit rate : 41.1 kb/s
Count of elements : 2964
Stream size : 33.5 MiB (1%)
Title : Thai PGS
Language : Thai
Default : No
Forced : No

Text #7
ID : 10
Format : PGS
Muxing mode : zlib
Codec ID : S_HDMV/PGS
Codec ID/Info : Picture based subtitle format used on BDs/HD-DVDs
Duration : 1 h 53 min
Bit rate : 46.4 kb/s
Count of elements : 2964
Stream size : 37.8 MiB (1%)
Title : Thai PGS
Language : Thai
Default : No
Forced : No

Text #8
ID : 11
Format : UTF-8
Codec ID : S_TEXT/UTF8
Codec ID/Info : UTF-8 Plain Text
Duration : 1 h 53 min
Bit rate : 163 b/s
Count of elements : 1484
Stream size : 137 KiB (0%)
Title : Thai
Language : Thai
Default : No
Forced : No

Text #9
ID : 12
Format : UTF-8
Codec ID : S_TEXT/UTF8
Codec ID/Info : UTF-8 Plain Text
Duration : 1 h 53 min
Bit rate : 81 b/s
Count of elements : 1611
Stream size : 67.7 KiB (0%)
Title : English
Language : English
Default : No
Forced : No

DOWNLOAD


PART01 |||| PART02 |||| PART03 |||| PART04

PART01 |||| PART02 |||| PART03 |||| PART04

PART01 |||| PART02 |||| PART03 |||| PART04

PART01 |||| PART02 |||| PART03 |||| PART04



แจ้งหนังเสีย หรือโหลดไม่ได้ ทั้งลิ้งฟรีและ vip สามารถกดที่รูปด้านบนนี้ได้เลย

: Disable Comments
%d bloggers like this: