เว็บโหลดหนัง HD MINI-HD SUPER-HQ Full-HD 1080p One2up VIP Cornfile Mekafile Master Zoom ซูม หนังใหม่ ออนไลน์ มาสเตอร์ ไทย จีน ฝรั่ง การ์ตูน

[MINI-HD] Meet Dave (2008) อาคันตุก๊ะป่วนโลก [1080p] [พากย์ไทย 5.1] [BrRip.AC3] [Modified] [เสียงไทย] [ONE2UP]

0

โหลดหนัง  Meet Dave (2008) อาคันตุก๊ะป่วนโลก

เรื่องย่อ Meet Dave (2008) อาคันตุก๊ะป่วนโลก

ทีมมนุษย์ต่างดาวตัวจิ๋ว เดินทางมายังโลกมนุษย์ด้วย “ยานอวกาศ” ที่มีรูปร่างหน้าตาและอากัปกิริยาเหมือนคนบนโลกทุกกระเบียดนิ้ว โดยมีจุดประสงค์เพื่อหาข้อมูลเป็นแนวทางในการช่วยดาวเคราะห์ของพวกเขาให้พ้น วิกฤติ ทุกอย่างคงดำเนินไปได้ด้วยดี หากไม่ว่า “ยานอวกาศ” (ในรูปร่างมนุษย์) จะไปตกหลุมรักหญิงสาวชาวโลกเสียก่อน

Complete name : [MINI-HD]_Meet.Dave.2008.BrRip.1080p.One2loadup.com.mkv
Format : Matroska
Format version : Version 2
File size : 1.94 GiB
Duration : 1 h 26 min
Overall bit rate mode : Constant
Overall bit rate : 3 200 kb/s
Encoded date : UTC 2016-01-11 16:06:04
Writing application : TMPGEnc Video Mastering Works 5 Version. 5.0.6.38
Writing library : TMPGEnc Video Mastering Works 5 Version. 5.0.6.38

Video
ID : 2
Format : AVC
Format/Info : Advanced Video Codec
Format profile : [email protected]
Format settings : CABAC / 3 Ref Frames
Format settings, CABAC : Yes
Format settings, ReFrames : 3 frames
Codec ID : V_MPEG4/ISO/AVC
Duration : 1 h 26 min
Bit rate mode : Constant
Bit rate : 2 688 kb/s
Nominal bit rate : 3 000 kb/s / 3 000 kb/s
Width : 1 920 pixels
Height : 1 040 pixels
Display aspect ratio : 1.85:1
Frame rate mode : Constant
Frame rate : 25.000 FPS
Standard : NTSC
Color space : YUV
Chroma subsampling : 4:2:0
Bit depth : 8 bits
Scan type : Progressive
Bits/(Pixel*Frame) : 0.054
Stream size : 1.63 GiB (84%)
Writing library : x264 core 114
Encoding settings : cabac=1 / ref=3 / deblock=1:0:0 / analyse=0x3:0x113 / me=hex / subme=7 / psy=1 / psy_rd=1.00:0.00 / mixed_ref=1 / me_range=16 / chroma_me=1 / trellis=1 / 8x8dct=1 / cqm=2 / deadzone=21,11 / fast_pskip=1 / chroma_qp_offset=-2 / threads=12 / sliced_threads=0 / slices=1 / nr=0 / decimate=1 / interlaced=0 / constrained_intra=0 / bframes=3 / b_pyramid=0 / b_adapt=1 / b_bias=0 / direct=1 / weightb=1 / open_gop=0 / weightp=2 / keyint=250 / keyint_min=25 / scenecut=40 / intra_refresh=0 / rc_lookahead=40 / rc=cbr / mbtree=1 / bitrate=3000 / ratetol=1.0 / qcomp=0.60 / qpmin=3 / qpmax=69 / qpstep=4 / vbv_maxrate=3000 / vbv_bufsize=2998 / nal_hrd=cbr / ip_ratio=1.40 / aq=1:1.00
Default : Yes
Forced : No
Color range : Limited
Color primaries : BT.709
Transfer characteristics : BT.709
Matrix coefficients : BT.709

Audio
ID : 1
Format : AC-3
Format/Info : Audio Coding 3
Codec ID : A_AC3
Duration : 1 h 26 min
Bit rate mode : Constant
Bit rate : 448 kb/s
Channel(s) : 2 channels
Channel positions : Front: L R
Sampling rate : 44.1 kHz
Frame rate : 28.711 FPS (1536 SPF)
Bit depth : 16 bits
Compression mode : Lossy
Stream size : 278 MiB (14%)
Service kind : Complete Main
Default : Yes
Forced : No

DOWNLOAD


PART01 |||| PART02

PART01 |||| PART02

PART01 |||| PART02

PART01 |||| PART02


Leave A Reply

Your email address will not be published.

%d bloggers like this: