[MINI-HD] Make Me Shudder 2: Shudder Me Mae Nak (2014) มอ 6/5 ปากหมาท้าแม่นาค [1080p] [พากย์ไทย 5.1] [DVDRip] [หนังไทย] [เสียงไทย] [OPENLOAD]

0

Make Me Shudder 2: Shudder Me Mae Nak (2014) มอ 6/5 ปากหมาท้าแม่นาค

โหลดหนัง Make Me Shudder 2: Shudder Me Mae Nak (2014) มอ 6/5 ปากหมาท้าแม่นาค

Mathayom pak ma tha Mae Nak (2014) Comedy | 10 April 2014 (Thailand) Summary: Nick, Bew, James and his friends are preparing for their university admission. As they played too much and failed miserably for their examinations, James brings his friends to receive ... See full summary »
Countries: ThailandLanguages: Thai

เรื่องย่อ Make Me Shudder 2: Shudder Me Mae Nak (2014) มอ 6/5 ปากหมาท้าแม่นาค

…เรื่องราวความปากดีของแก๊งค์ มอ 6/5 ที่นำโดยขาซ่าประจำกลุ่ม “นิก (คุณาธิป ปิ่นประดับ)” หัวหน้าแก๊งค์ และพลพรรคชาวแก๊งส์ที่ยังอยู่กันครบทีม “เจมส์ (ภูวดล เวชวงศา)” , “บิว (กิตติพัฒน์ สมานตระกูลชัย)” “เทป (วรชัย ศิริคงสุวรรณ)” , “ออย (ฤทธิชัย ตะสาริกา)” , “ไบรอัน (ไบรอัน การ์ตั้น)” และ “เน็ท (สิรภพ มานิธิคุณ)” หลังจากที่ทุกคนเคยเคยผ่านประสบการณ์เจอดีในตึกเก่าของโรงเรียนมาแล้ว ก็ทำให้พวกเขาสำนึกและไม่กล้าไปลองดีที่ไหนอีกจนถึงวันที่เหล่าก๊วนแสบต้องเตรียมตัวเพื่อสอบเข้ามหาวิทยาลัย แต่ด้วยความที่แต่ละคนก็ไม่ใช่เด็กเรียนเก่งอะไรกันมากนักไสยศาสตร์ จึงเป็นทางออกที่เด็กกลุ่มนี้คิดได้ การไปบนบานศาลกล่าวต่อ “ศาลแม่นาคพระโขนง” จึงเป็นหนทางที่กลุ่มเด็ก มอ 6/5 ตัดสินใจว่าน่าจะเป็นหนทางที่ดีที่สุด แต่เพราะความปากหมาของ “นิก” ที่ยังคงเสมอต้นเสมอปลายเลยทำให้เกิดเหตุการณ์ที่สุดตื่นเต้นที่พวกเขายากจะลืมเลือนกันอีกครั้ง!!!

Complete name : [MINI-HD]_Make.Me.Shudder.2.Shudder.Me.Mae.Nak.2014.1080p.DVDRip.AC3.x264.One2loadup.com.mkv
Format : Matroska
Format version : Version 4
File size : 3.41 GiB
Duration : 1 h 53 min
Overall bit rate : 4 281 kb/s
Movie name : [MINI-HD]_Make.Me.Shudder.2.Shudder.Me.Mae.Nak.2014.1080p.DVDRip.AC3.x264.One2loadup.com
Encoded date : UTC 2014-07-02 23:22:34
Writing application : mkvmerge v7.0.0 (‘Where We Going’) 64bit built on Jun 9 2014 15:16:27
Writing library : libebml v1.3.0 + libmatroska v1.4.1

Video
ID : 1
Format : AVC
Format/Info : Advanced Video Codec
Format profile : [email protected]
Format settings : CABAC / 5 Ref Frames
Format settings, CABAC : Yes
Format settings, ReFrames : 5 frames
Codec ID : V_MPEG4/ISO/AVC
Duration : 1 h 53 min
Bit rate : 3 703 kb/s
Width : 1 920 pixels
Height : 816 pixels
Display aspect ratio : 2.35:1
Frame rate mode : Constant
Frame rate : 25.000 FPS
Color space : YUV
Chroma subsampling : 4:2:0
Bit depth : 8 bits
Scan type : Progressive
Bits/(Pixel*Frame) : 0.095
Stream size : 2.95 GiB (87%)
Title : [MINI-HD]_Make.Me.Shudder.2.Shudder.Me.Mae.Nak.2014.1080p.DVDRip.AC3.x264.One2loadup.com
Writing library : x264 core 142 r2431 ac76440
Encoding settings : cabac=1 / ref=5 / deblock=1:0:0 / analyse=0x3:0x133 / me=umh / subme=9 / psy=1 / psy_rd=1.00:0.00 / mixed_ref=1 / me_range=24 / chroma_me=1 / trellis=1 / 8x8dct=1 / cqm=0 / deadzone=21,11 / fast_pskip=1 / chroma_qp_offset=-2 / threads=12 / lookahead_threads=1 / sliced_threads=0 / nr=0 / decimate=1 / interlaced=0 / bluray_compat=0 / constrained_intra=0 / bframes=5 / b_pyramid=2 / b_adapt=2 / b_bias=0 / direct=1 / weightb=1 / open_gop=0 / weightp=2 / keyint=250 / keyint_min=25 / scenecut=40 / intra_refresh=0 / rc_lookahead=40 / rc=crf / mbtree=1 / crf=20.0 / qcomp=0.60 / qpmin=0 / qpmax=69 / qpstep=4 / ip_ratio=1.40 / aq=1:1.00
Default : Yes
Forced : No
Color range : Limited
Color primaries : BT.709
Transfer characteristics : BT.709
Matrix coefficients : BT.709

Audio #1
ID : 2
Format : AC-3
Format/Info : Audio Coding 3
Commercial name : Dolby Digital
Codec ID : A_AC3
Duration : 1 h 53 min
Bit rate mode : Constant
Bit rate : 448 kb/s
Channel(s) : 6 channels
Channel layout : L R C LFE Ls Rs
Sampling rate : 48.0 kHz
Frame rate : 31.250 FPS (1536 SPF)
Bit depth : 16 bits
Compression mode : Lossy
Stream size : 365 MiB (10%)
Title : 5.1 AC3 448 www.SeeingMole.com
Language : Thai
Service kind : Complete Main
Default : Yes
Forced : No

Audio #2
ID : 3
Format : AAC LC
Format/Info : Advanced Audio Codec Low Complexity
Codec ID : A_AAC-2
Duration : 1 h 53 min
Bit rate : 127 kb/s
Channel(s) : 2 channels
Channel layout : L R
Sampling rate : 48.0 kHz
Frame rate : 46.875 FPS (1024 SPF)
Compression mode : Lossy
Stream size : 104 MiB (3%)
Title : stereo AAC-LC 128 ABR 2-pass www.SeeingMole.com
Language : Thai
Default : No
Forced : No

Menu
00:00:00.000 : en:Chapter 1
00:07:27.680 : en:Chapter 2
00:14:35.840 : en:Chapter 3
00:27:27.960 : en:Chapter 4
00:34:19.160 : en:Chapter 5
00:48:54.800 : en:Chapter 6
00:58:33.360 : en:Chapter 7
01:08:34.360 : en:Chapter 8
01:19:53.280 : en:Chapter 9
01:28:36.080 : en:Chapter 10
01:36:05.680 : en:Chapter 11
01:51:02.080 : en:Chapter 12

DOWNLOAD


PART01 |||| PART02 |||| PART03 |||| PART04

PART01 |||| PART02 |||| PART03 |||| PART04

PART01 |||| PART02 |||| PART03 |||| PART04

PART01 |||| PART02 |||| PART03 |||| PART04


Leave A Reply

Your email address will not be published.

%d bloggers like this: