โหลดหนัง HD MINI-HD SUPER-HQ Full-HD 1080p VIP Master Zoom ซูม หนังใหม่ ออนไลน์ มาสเตอร์ ไทย จีน ฝรั่ง การ์ตูน

[MINI-HD] Mad Max (1979) แมดแม็กซ์ ภาค 1 [720p] [พากย์ไทย 5.1 + อังกฤษ 5.1] [บรรยายไทย + อังกฤษ] [เสียงไทย + ซับไทย] [ONE2UP]

0

Mad Max (1979) แมดแม็กซ์ ภาค 1

โหลดหนัง Mad Max (1979) แมดแม็กซ์ ภาค 1

เรื่องย่อ Mad Max (1979) แมดแม็กซ์ ภาค 1

ช่วงเวลาหนึ่งของมนุษย์โลก ที่สังคมเต็มไปด้วยความวิปริต โหดเหี้ยมของกลุ่มคนที่ ถูกรุมเร้าด้วยวิถีแห่งสังคม จนทำให้กลายเป็น โรคจิตทางสังคมชอบสร้างพฤติกรรมที่เหี้ยมโหดมองเห็นความรุนแรงเป็นความสุขในชีวิตเมื่อเกิดคนเลวในสังคม ก็ต้องมีฝ่ายต่อต้านคนเลว โดย เมล กิ๊บสัน รับบทเป็น ตำรวจ ที่ต้องคอยปกป้องคนดี ไม่ให้ ถูกคนเลวทำร้ายแล้ววันหนึ่ง ผู้รักษากฎหมายอย่าง เมล กิ๊บสันก็ถูกคนเลวในสังคมทำร้ายลูกและเมียของเขาอย่างเหี้ยมโหด โดยทางการ(ตำรวจ)ก็ไม่สามารถจะคุ้มครองครอบครัวของเขาได้จึงถึงจุดระเบิด ที่ ตำรวจอย่าง เมล กิ๊บสัน ต้องใช้อำนาจส่วนตัว จำกัด คนเลวด้วยตัวเอง เข้าทำนอง “เกลือต้องจิ้มด้วยเกลือ” และ นับแต่วินาทีนี้เป็นต้นไปจึงเกิดพฤติกรรมแมดแม็กซ์ ขึ้นการตามล้างตามฆ่าคนเลว ด้วยวิธีรุนแรงเช่นเดียวกับที่คนร้ายทำกับคนดีเริ่มขึ้น และ เสน่ห์ของหนังที่ทำให้คนดูต้องยกนิ้วโป้งให้ทั้งสองนิ้วก็ตรงความสะใจในการปราบคนเลวด้วยวิธีตาต่อตาฟันต่อฟันนี่เอง

Complete name : [MINI-HD]_Mad.Max.1.1979.720p.BluRay.AC3.One2loadup.com.mkv
Format : Matroska
Format version : Version 2
File size : 4.29 GiB
Duration : 1 h 33 min
Overall bit rate : 6 597 kb/s
Movie name : [MINI-HD]_Mad.Max.1.1979.720p.BluRay.AC3.One2loadup.com
Encoded date : UTC 2011-11-03 13:03:38
Writing application : mkvmerge v4.6.0 (‘Still Crazy After All These Years’) built on Mar 10 2011 02:50:32
Writing library : libebml v1.2.0 + libmatroska v1.1.0

Video
ID : 1
Format : AVC
Format/Info : Advanced Video Codec
Format profile : [email protected]
Format settings : CABAC / 6 Ref Frames
Format settings, CABAC : Yes
Format settings, ReFrames : 6 frames
Codec ID : V_MPEG4/ISO/AVC
Duration : 1 h 33 min
Bit rate : 5 886 kb/s
Width : 1 280 pixels
Height : 544 pixels
Display aspect ratio : 2.35:1
Frame rate mode : Constant
Frame rate : 23.976 (24000/1001) FPS
Color space : YUV
Chroma subsampling : 4:2:0
Bit depth : 8 bits
Scan type : Progressive
Bits/(Pixel*Frame) : 0.353
Stream size : 3.75 GiB (87%)
Title : [MINI-HD]_Mad.Max.1.1979.720p.BluRay.AC3.One2loadup.com
Writing library : x264 core 65 r1084M a48d1d0
Encoding settings : cabac=1 / ref=6 / deblock=1:-1:-2 / analyse=0x3:0x113 / me=umh / subme=9 / psy_rd=0.9:0.0 / mixed_ref=1 / me_range=32 / chroma_me=1 / trellis=2 / 8x8dct=1 / cqm=0 / deadzone=21,11 / chroma_qp_offset=-2 / threads=12 / nr=0 / decimate=0 / mbaff=0 / bframes=4 / b_pyramid=1 / b_adapt=2 / b_bias=0 / direct=3 / wpredb=1 / keyint=250 / keyint_min=25 / scenecut=40(pre) / rc=2pass / bitrate=5886 / ratetol=1.0 / qcomp=0.60 / qpmin=10 / qpmax=51 / qpstep=4 / cplxblur=20.0 / qblur=0.5 / vbv_maxrate=50000 / vbv_bufsize=50000 / ip_ratio=1.40 / pb_ratio=1.30 / aq=1:0.90
Language : English
Default : Yes
Forced : No

Audio #1
ID : 2
Format : AC-3
Format/Info : Audio Coding 3
Codec ID : A_AC3
Duration : 1 h 33 min
Bit rate mode : Constant
Bit rate : 448 kb/s
Channel(s) : 6 channels
Channel positions : Front: L C R, Side: L R, LFE
Sampling rate : 48.0 kHz
Frame rate : 31.250 FPS (1536 SPF)
Bit depth : 16 bits
Compression mode : Lossy
Stream size : 298 MiB (7%)
Title : Australian English 5.1
Language : English
Service kind : Complete Main
Default : Yes
Forced : No

Audio #2
ID : 3
Format : AC-3
Format/Info : Audio Coding 3
Codec ID : A_AC3
Duration : 1 h 33 min
Bit rate mode : Constant
Bit rate : 256 kb/s
Channel(s) : 6 channels
Channel positions : Front: L C R, Side: L R, LFE
Sampling rate : 44.1 kHz
Frame rate : 28.711 FPS (1536 SPF)
Bit depth : 16 bits
Compression mode : Lossy
Stream size : 170 MiB (4%)
Title : Thai AC3 [vcd]
Language : Thai
Service kind : Complete Main
Default : No
Forced : No

Text #1
ID : 4
Format : VobSub
Codec ID : S_VOBSUB
Codec ID/Info : Picture based subtitle format used on DVDs
Title : Thai [dvd master]
Language : Thai
Default : Yes
Forced : No

Text #2
ID : 5
Format : VobSub
Codec ID : S_VOBSUB
Codec ID/Info : Picture based subtitle format used on DVDs
Title : Thai [dvd master]
Language : Thai
Default : No
Forced : No

Text #3
ID : 6
Format : VobSub
Codec ID : S_VOBSUB
Codec ID/Info : Picture based subtitle format used on DVDs
Title : English 480p
Language : English
Default : No
Forced : No

Text #4
ID : 7
Format : VobSub
Codec ID : S_VOBSUB
Codec ID/Info : Picture based subtitle format used on DVDs
Title : English 1080p
Language : English
Default : No
Forced : No

DOWNLOAD


PART01 |||| PART02 |||| PART03 |||| PART04 |||| PART05

PART01 |||| PART02 |||| PART03 |||| PART04 |||| PART05

PART01 |||| PART02 |||| PART03 |||| PART04 |||| PART05

PART01 |||| PART02 |||| PART03 |||| PART04 |||| PART05


Leave A Reply

Your email address will not be published.

%d bloggers like this: