[MINI-HD] Knight and Day (2010) โคตรคนพยัคฆ์ร้ายกับหวานใจมหาประลัย [1080p] [พากย์ไทย 5.1 + เสียงอังกฤษ 5.1] [บรรยายไทย + อังกฤษ] [เสียงไทย + ซับไทย] [PANDAFILE]

0

Knight and Day (2010)

โหลดหนัง Knight and Day (2010) โคตรคนพยัคฆ์ร้ายกับหวานใจมหาประลัย

Knight and Day (2010) 1h 49min | Action, Adventure, Comedy | 15 July 2010 (Netherlands) Summary: A young woman gets mixed up with a disgraced spy who is trying to clear his name.
Countries: USALanguages: English, German, Spanish

เรื่องย่อ Knight and Day (2010) โคตรคนพยัคฆ์ร้ายกับหวานใจมหาประลัย

การพบกันอีกครั้งของสองซูเปอร์สตาร์จอยักษ์ ทอม ครูซ และ คาเมรอน ดิแอซ จับคู่ลุยสุดขั้วรัวเสียงฮาในภาพยนตร์แอ็คชั่นคอมิดี้ สุดเซ็กซี่แหกทุกกฎเกณฑ์ เมื่อจูน (คาเมรอน) หญิงสาวจากเมืองเล็กๆ ได้พบกับหนุ่มแปลกหน้ารูปหล่อ เธอคิดว่าชายในฝันหล่นมาอยู่ในมือซะแล้วแต่อินได้ไม่ นานเธอก็รู้ว่าเขาคือสุดยอดสายลับที่หลบหนีการตามล่า แถมยังลากเธอเข้ามาผจญอันตรายไปทั่วโลก ขณะที่ห่ากระสุนพุ่งทะลุรังเพลิงอย่างไม่ขาดสาย หัวใจจูนก็เต้นระส่ำไปกับสายลับแมนโคตรอย่างเขาจูนต้องเลือกแล้วว่า “อัศวิน” ขี่ม้าขาวผู้นี้คือทรชนอันตราย หรือชายที่เป็นรักแท้ของชีวิต

Complete name : [MINI-HD]_Knight.and.Day.2010.1080p.BrRip.AC3.x264.One2loadup.com.mkv
Format : Matroska
Format version : Version 2
File size : 2.19 GiB
Duration : 1 h 49 min
Overall bit rate : 2 862 kb/s
Movie name : [MINI-HD]_Knight.and.Day.2010.1080p.BrRip.AC3.x264.One2loadup.com
Encoded date : UTC 2012-11-05 13:23:41
Writing application : mkvmerge v3.4.0 (‘Rapunzel’) built on May 15 2010 09:38:20
Writing library : libebml v0.8.0 + libmatroska v0.9.0

Video
ID : 1
Format : AVC
Format/Info : Advanced Video Codec
Format profile : [email protected]
Format settings : CABAC / 4 Ref Frames
Format settings, CABAC : Yes
Format settings, ReFrames : 4 frames
Codec ID : V_MPEG4/ISO/AVC
Duration : 1 h 49 min
Bit rate : 1 927 kb/s
Width : 1 920 pixels
Height : 800 pixels
Display aspect ratio : 2.40:1
Frame rate mode : Constant
Frame rate : 23.976 (24000/1001) FPS
Color space : YUV
Chroma subsampling : 4:2:0
Bit depth : 8 bits
Scan type : Progressive
Bits/(Pixel*Frame) : 0.052
Stream size : 1.46 GiB (67%)
Title : [MINI-HD]_Knight.and.Day.2010.1080p.BrRip.AC3.x264.One2loadup.com
Writing library : x264 core 120 r2164 da19765
Encoding settings : cabac=1 / ref=3 / deblock=1:-2:-1 / analyse=0x3:0x113 / me=hex / subme=7 / psy=1 / psy_rd=1.00:0.00 / mixed_ref=1 / me_range=16 / chroma_me=1 / trellis=1 / 8x8dct=1 / cqm=0 / deadzone=21,11 / fast_pskip=1 / chroma_qp_offset=-2 / threads=12 / sliced_threads=0 / nr=0 / decimate=1 / interlaced=0 / bluray_compat=0 / constrained_intra=0 / bframes=3 / b_pyramid=2 / b_adapt=1 / b_bias=0 / direct=1 / weightb=1 / open_gop=0 / weightp=2 / keyint=240 / keyint_min=23 / scenecut=40 / intra_refresh=0 / rc_lookahead=40 / rc=2pass / mbtree=1 / bitrate=1927 / ratetol=1.0 / qcomp=0.60 / qpmin=10 / qpmax=51 / qpstep=4 / cplxblur=20.0 / qblur=0.5 / ip_ratio=1.40 / aq=1:1.00
Language : English
Default : Yes
Forced : Yes

Audio #1
ID : 2
Format : AC-3
Format/Info : Audio Coding 3
Commercial name : Dolby Digital
Codec ID : A_AC3
Duration : 1 h 49 min
Bit rate mode : Constant
Bit rate : 448 kb/s
Channel(s) : 6 channels
Channel layout : L R C LFE Ls Rs
Sampling rate : 48.0 kHz
Frame rate : 31.250 FPS (1536 SPF)
Bit depth : 16 bits
Compression mode : Lossy
Delay relative to video : 800 ms
Stream size : 351 MiB (16%)
Title : Thai.AC3
Language : Thai
Service kind : Complete Main
Default : Yes
Forced : Yes

Audio #2
ID : 3
Format : AC-3
Format/Info : Audio Coding 3
Commercial name : Dolby Digital
Codec ID : A_AC3
Duration : 1 h 49 min
Bit rate mode : Constant
Bit rate : 448 kb/s
Channel(s) : 6 channels
Channel layout : L R C LFE Ls Rs
Sampling rate : 48.0 kHz
Frame rate : 31.250 FPS (1536 SPF)
Bit depth : 16 bits
Compression mode : Lossy
Stream size : 351 MiB (16%)
Title : Eng.AC3
Language : English
Service kind : Complete Main
Default : No
Forced : No

Text #1
ID : 4
Format : VobSub
Codec ID : S_VOBSUB
Codec ID/Info : Picture based subtitle format used on DVDs
Title : Thai.480p
Language : Thai
Default : No
Forced : No

Text #2
ID : 5
Format : VobSub
Codec ID : S_VOBSUB
Codec ID/Info : Picture based subtitle format used on DVDs
Title : Thai.1080p
Language : Thai
Default : Yes
Forced : Yes

Text #3
ID : 6
Format : VobSub
Codec ID : S_VOBSUB
Codec ID/Info : Picture based subtitle format used on DVDs
Title : Thai.1080p.Out
Language : Thai
Default : No
Forced : No

Text #4
ID : 7
Format : VobSub
Codec ID : S_VOBSUB
Codec ID/Info : Picture based subtitle format used on DVDs
Title : Thai.1080p.Yellow
Language : Thai
Default : No
Forced : No

Text #5
ID : 8
Format : VobSub
Codec ID : S_VOBSUB
Codec ID/Info : Picture based subtitle format used on DVDs
Title : Thai.1080p.Sarabun
Language : Thai
Default : No
Forced : No

Text #6
ID : 9
Format : VobSub
Codec ID : S_VOBSUB
Codec ID/Info : Picture based subtitle format used on DVDs
Title : Eng.1080p
Language : English
Default : No
Forced : No

DOWNLOAD


PART01 |||| PART02 |||| PART03

PART01 |||| PART02 |||| PART03

PART01 |||| PART02 |||| PART03

PART01 |||| PART02 |||| PART03


Leave A Reply

Your email address will not be published.

%d bloggers like this: