[MINI-HD] King Naresuan 5 (2014) ตำนานสมเด็จพระนเรศวรมหาราช ภาค 5 ศึกนันทบุเรง [1080p] [พากย์ไทย 5.1] [ไม่มีบรรยาย] [เสียงไทย] [OPENLOAD]

0

King Naresuan 5 (2014) ตำนานสมเด็จพระนเรศวรมหาราช ภาค 5 ศึกนันทบุเรง

โหลดหนัง King Naresuan 5 (2014) ตำนานสมเด็จพระนเรศวรมหาราช ภาค 5 ศึกนันทบุเรง

เรื่องย่อ King Naresuan 5 (2014) ตำนานสมเด็จพระนเรศวรมหาราช ภาค 5 ศึกนันทบุเรง

ในปีพ.ศ. 2129 พระเจ้านันทบุเรงทรงแค้นเคืองที่ต้องปราชัยต่อสมเด็จพระนเรศฯอย่างย่อยยับ ทั้งต้องเสียไพร่พลและพระสิริโฉม จึงระบายความแค้นนั้นไปที่องค์พระสุพรรณกัลยา เมื่อสมเด็จพระมหาธรรมราชาพระราชบิดาทราบความก็ให้โทมนัสด้วยสำนึกว่าชะตากรรมของพระราชธิดาและแผ่นดินอยุธยาที่ถูกกระทำการย่ำยีก็ด้วยเพราะพระองค์ทรงแปรพักตร์ไปเข้าข้างศัตรู จนตรอมพระทัยเสด็จสวรรคต สมเด็จพระนเรศฯจึงเสด็จขึ้นเสวยราชสมบัติครองกรุงศรีอยุธยาสืบต่อจากพระราชบิดา ข่าวการผลัดแผ่นดินของอยุธยารู้ไปถึงพระเจ้านันทบุเรง พระองค์สำคัญว่าราชอาณาจักรสยามจะไม่เป็นปกติสุขเป็นช่องชวนชิงเชิง จึงโปรดให้มังสามเกียดอุปราชเจ้าวังหน้ากรีฑาทัพไปตีกรุงศรีอยุธยาอีกคำรบ ข้างสมเด็จพระนเรศฯทรงโปรดให้พระราชมนูแต่งพลเป็นทัพหน้าขึ้นไปดูกำลังข้าศึกถึงหนองสาหร่าย ทัพหน้าพระราชมนูปะทะเข้ากับทัพพม่าถึงขั้นตะลุมบอน แต่กำลังข้างพระราชมนูน้อยกว่าจึงแตกพ่ายถอยลงมาเป็นอลหม่าน สมเด็จพระนเรศฯทราบความจึงออกอุบายให้ทัพข้าศึกไล่เตลิดลงมาจนเสียกระบวนแล้วจึงทรงนำกำลังออกยอทัพข้าศึก ครั้งนั้นช้างทรงของสมเด็จพระนเรศฯ นามเจ้าพระยาไชยานุภาพ และช้างทรงของสมเด็จพระเอกาทศรถคือเจ้าพระยาปราบไตรจักรต่างตกน้ำมัน วิ่งร่าเบกพลฝ่าเข้าไปในทัพพม่ารามัญกลางวงล้อมข้าศึกและหยุดอยู่หน้าช้างพระมหาอุปราชา สมเด็จพระนเรศฯ จึงประกาศท้าพระมหาอุปราชแห่งหงสาให้ออกกระทำยุทธหัตถีเป็นพระเกียรติยศแก่แผ่นดิน ด้วยขัตติยมานะพระมหาอุปราชาก็ไสพระคชาธารออกทำคชยุทธด้วยสมเด็จพระนเรศฯ ขณะที่มังจาปะโร พระพี่เลี้ยงองค์สมเด็จพระมหาอุปราชได้ออกทำยุทธหัตถีกับสมเด็จพระเอกาทศรถสัประยุทธ์กันเป็นสองคู่ สู่มหาศึกคชยุทธ์ที่มีแผ่นดินเป็นเดิมพัน

Complete name : [MINI-HD]_5.King.Naresuan.2014.1080p.AC3.x264.One2loadup.com.mkv
Format : Matroska
Format version : Version 4
File size : 2.49 GiB
Duration : 1 h 58 min
Overall bit rate : 3 006 kb/s
Movie name : [MINI-HD]_5.King.Naresuan.2014.1080p.AC3.x264.One2loadup.com
Encoded date : UTC 2014-09-03 13:52:58
Writing application : mkvmerge v7.0.0 (‘Where We Going’) 32bit built on Jun 9 2014 15:08:34
Writing library : libebml v1.3.0 + libmatroska v1.4.1

Video
ID : 1
Format : AVC
Format/Info : Advanced Video Codec
Format profile : [email protected]
Format settings : CABAC / 3 Ref Frames
Format settings, CABAC : Yes
Format settings, ReFrames : 3 frames
Codec ID : V_MPEG4/ISO/AVC
Duration : 1 h 58 min
Bit rate : 2 500 kb/s
Width : 1 920 pixels
Height : 1 080 pixels
Display aspect ratio : 16:9
Frame rate mode : Constant
Frame rate : 24.000 FPS
Color space : YUV
Chroma subsampling : 4:2:0
Bit depth : 8 bits
Scan type : Progressive
Bits/(Pixel*Frame) : 0.050
Stream size : 2.06 GiB (83%)
Title : [MINI-HD]_5.King.Naresuan.2014.1080p.AC3.x264.One2loadup.com
Writing library : x264 core 116 r2019M 9cc407d
Encoding settings : cabac=1 / ref=3 / deblock=1:0:0 / analyse=0x3:0x133 / me=hex / subme=7 / psy=1 / psy_rd=1.00:0.20 / mixed_ref=1 / me_range=16 / chroma_me=1 / trellis=1 / 8x8dct=1 / cqm=0 / deadzone=21,11 / fast_pskip=1 / chroma_qp_offset=-3 / threads=8 / sliced_threads=0 / nr=0 / decimate=1 / interlaced=0 / bluray_compat=0 / constrained_intra=0 / bframes=3 / b_pyramid=1 / b_adapt=2 / b_bias=0 / direct=3 / weightb=1 / open_gop=0 / weightp=2 / keyint=240 / keyint_min=24 / scenecut=40 / intra_refresh=0 / rc_lookahead=40 / rc=abr / mbtree=1 / bitrate=2500 / ratetol=1.0 / qcomp=0.60 / qpmin=10 / qpmax=51 / qpstep=4 / vbv_maxrate=31250 / vbv_bufsize=62500 / nal_hrd=none / ip_ratio=1.40 / aq=1:1.00
Language : Thai
Default : Yes
Forced : No

Audio #1
ID : 2
Format : AC-3
Format/Info : Audio Coding 3
Commercial name : Dolby Digital
Codec ID : A_AC3
Duration : 1 h 58 min
Bit rate mode : Constant
Bit rate : 384 kb/s
Channel(s) : 6 channels
Channel layout : L R C LFE Ls Rs
Sampling rate : 48.0 kHz
Frame rate : 31.250 FPS (1536 SPF)
Bit depth : 16 bits
Compression mode : Lossy
Stream size : 325 MiB (13%)
Title : 5.1
Language : Thai
Service kind : Complete Main
Default : Yes
Forced : No

Audio #2
ID : 3
Format : AC-3
Format/Info : Audio Coding 3
Commercial name : Dolby Digital
Codec ID : A_AC3
Duration : 1 h 58 min
Bit rate mode : Constant
Bit rate : 128 kb/s
Channel(s) : 2 channels
Channel layout : L R
Sampling rate : 48.0 kHz
Frame rate : 31.250 FPS (1536 SPF)
Bit depth : 16 bits
Compression mode : Lossy
Stream size : 108 MiB (4%)
Title : 2.0
Language : Thai
Service kind : Complete Main
Default : No
Forced : No

DOWNLOAD


PART01 |||| PART02 |||| PART03

PART01 |||| PART02 |||| PART03

PART01 |||| PART02 |||| PART03

PART01 |||| PART02 |||| PART03


Leave A Reply

Your email address will not be published.

%d bloggers like this: