[MINI-HD] Hor taew tak 2 (2009) หอแต๋วแตก แหกกระเจิง ภาค 2 [1080p] [พากย์ไทย 2.0] [WEB-DL] [หนังไทย] [เสียงไทย] [ONE2UP]

0

Hor taew tak 2 (2009) หอแต๋วแตก แหกกระเจิง ภาค 2

โหลดหนัง Hor taew tak 2 (2009) หอแต๋วแตก แหกกระเจิง ภาค 2

Hor taew tak 2 (2009) Comedy | 1 October 2009 (Thailand) Summary: Three companions are frightened by a horrible ghost that haunts their dorm. Tired of running away, they summon a spirit to help them defeat the ghost. But things turn chaos when they can't ... See full summary »
Countries: ThailandLanguages: Thai

เรื่องย่อ Hor taew tak 2 (2009) หอแต๋วแตก แหกกระเจิง ภาค 2

พี่คนโต พัชราภา (จตุรงค์ มกจ๊ก) กะเทยวัยกลางคน สวยตามอัตภาพ เคร่งขรึม มีความรับผิดชอบ และไม่กลัวผี เฌอมาลย์ (เอกชัย ศรีวิชัย) กะเทยคนรองที่คิดว่าตัวเองสวยตลอดเวลา ชอบแต่งตัวแฟชั่นจ๋าตามดารา และมีความสามารถพิเศษด้านการชกมวย และ การ์ตูน (ยิ่งศักดิ์ จงเลิศเจษฎาวงศ์) กะเทยน้องเล็กสุดแอ๊บแบ๊ว ไร้เดียงสา ทำกับข้าวเก่ง และกลัวผีมาก ทั้งสามเคยร่วมกันทำกิจการหอพัก แต่กลับโดนผีสาวชื่อ น้ำนิ่ง ตามจองล้างจองผลาญจนคนในหอพักย้ายหนีกันไปหมด ทั้งสามจึงต้องระหกระเหินมาเซ้งหอพักแห่งใหม่เพื่อทำกิจการหอพักต่อไป แต่เหมือนหนีเสือปะจระเข้ ที่หอพักแห่งใหม่ พวกเธอต้องผจญกับ ผีอุษามณี (สุดารัตน์ บุตรพรม) ซึ่งเคยเป็นนางรำสมัยรัชกาลที่ 5 เป็นคนที่ไม่สวยด้วยหน้าตา แต่สวยด้วยจิตใจ เธอรำได้งดงามมาก ไม่โหวกเหวกโวยวาย ไม่ชอบมีเรื่องทะเลาะกับคนอื่น แต่อย่างไรก็ตาม เธอเป็นผี! สามพี่น้องพร้อมใจกันเล่นผีถ้วยแก้วหวังเรียก ผีแพนเค้ก (โก๊ะตี๋ อารามบอย) ซึ่งเป็นผีนักศึกษาผู้คลั่งไคล้ตุ๊กตาบลายธ์และมีจิตใจดีงาม ให้มาช่วยปราบ ผีอุษามณี แต่ด้วยระดับความเก๋าของ ผีอุษามณี ที่ตายมานานกว่า ทำให้ ผีแพนเค้ก ไม่สามารถทำอะไรได้ ความวุ่นวายอลหม่านปนเสียงฮาจึงเกิดขึ้น

Complete name : [MINI-HD]_Hor.taew.tak.2.2009.1080p.WEB-DL.AAC.x264.One2loadup.com.mkv
Format : Matroska
Format version : Version 4
File size : 3.25 GiB
Duration : 1 h 34 min
Overall bit rate : 4 929 kb/s
Encoded date : UTC 2018-11-17 21:28:44
Writing application : mkvmerge v9.2.0 (‘Photograph’) 32bit
Writing library : libebml v1.3.3 + libmatroska v1.4.4

Video
ID : 1
Format : AVC
Format/Info : Advanced Video Codec
Format profile : [email protected]
Format settings : CABAC / 3 Ref Frames
Format settings, CABAC : Yes
Format settings, ReFrames : 3 frames
Codec ID : V_MPEG4/ISO/AVC
Duration : 1 h 34 min
Bit rate : 4 833 kb/s
Width : 1 920 pixels
Height : 1 080 pixels
Display aspect ratio : 16:9
Frame rate mode : Constant
Frame rate : 24.000 FPS
Color space : YUV
Chroma subsampling : 4:2:0
Bit depth : 8 bits
Scan type : Progressive
Bits/(Pixel*Frame) : 0.097
Stream size : 3.18 GiB (98%)
Default : Yes
Forced : No

Audio
ID : 2
Format : AAC LC SBR
Format/Info : Advanced Audio Codec Low Complexity with Spectral Band Replication
Commercial name : HE-AAC
Format settings : Explicit
Codec ID : A_AAC-2
Duration : 1 h 34 min
Bit rate : 96.0 kb/s
Channel(s) : 2 channels
Channel layout : L R
Sampling rate : 48.0 kHz
Frame rate : 23.438 FPS (2048 SPF)
Compression mode : Lossy
Delay relative to video : 1 ms
Stream size : 63.8 MiB (2%)
Language : Thai
Default : Yes
Forced : No

DOWNLOAD


PART01 |||| PART02 |||| PART03 |||| PART04

PART01 |||| PART02 |||| PART03 |||| PART04

PART01 |||| PART02 |||| PART03 |||| PART04

PART01 |||| PART02 |||| PART03 |||| PART04


Leave A Reply

Your email address will not be published.

%d bloggers like this: