โหลดหนัง HD MINI-HD SUPER-HQ Full-HD 1080p VIP Master Zoom ซูม หนังใหม่ ออนไลน์ มาสเตอร์ ไทย จีน ฝรั่ง การ์ตูน

[MINI-HD] Fallen (2016) เทวทัณฑ์ [1080p] [พากย์ไทย DTS + อังกฤษ DTS] [ซับไทย + อังกฤษ] [ONE2UP]

0

โหลดหนัง  [MINI-HD] Fallen (2016) เทวทัณฑ์ [1080p] [พากย์ไทย DTS + อังกฤษ DTS] [ซับไทย + อังกฤษ] [ONE2UP]

Fallen: ลูซินด้า (แอดดิสัน ทิมลิน) หญิงสาววัย 17 ปี ที่เห็นภาพหลอนจากการตายของแฟนหนุ่มตัวเอง จนเธอต้องเข้ารับการบำบัด และเข้ามาอยู่ในโรงเรียนดัดสันดานที่ห่างไกลจากผู้คน แต่แล้วเมื่อเธอเข้ามาในโรงเรียนแห่งนี้เธอกลับสัมผัสได้ว่ามีเงาดำที่กำลังติดตามตัวเธออยู่ ยิ่งไปกว่านั้นยังมีหนุ่มหล่ออีกสองคนตามติดเธออย่างไม่ลดละไม่ว่าจะเป็นแดเนียล กริกอรี (เจเรมี เออร์วีน) หนุ่มมาดเนี้ยบ ในขณะที่อีกคน คือ คาเมรอน บรีล (แฮริสัน กิลเบิร์ทสัน) ซึ่งความจริงก็คือทั้งสองนั้นไม่ได้เป็นหนุ่มธรรมดา แต่เป็นถึงเทวดาตกสวรรค์ที่มารอคอยการปรากฏตัวของลูซินด้านานนับศตวรรษ

Complete name : [MINI Super-HQ]_Fallen.2016.1080p.BrRip.DTS.x264.One2loadup.com.mkv
Format : Matroska
Format version : Version 4 / Version 2
File size : 4.12 GiB
Duration : 1 h 31 min
Overall bit rate : 6 444 kb/s
Movie name : [MINI Super-HQ]_Fallen.2016.1080p.BrRip.DTS.x264.One2loadup.com
Encoded date : UTC 2010-02-22 21:41:31
Writing application : mkvmerge v5.9.0 (‘On The Loose’) built on Dec 9 2012 15:37:01
Writing library : libebml v1.3.0 + libmatroska v1.4.0

Video
ID : 1
Format : AVC
Format/Info : Advanced Video Codec
Format profile : [email protected]
Format settings, CABAC : Yes
Format settings, RefFrames : 4 frames
Codec ID : V_MPEG4/ISO/AVC
Duration : 1 h 31 min
Bit rate : 4 808 kb/s
Width : 1 920 pixels
Height : 816 pixels
Display aspect ratio : 2.35:1
Frame rate mode : Constant
Frame rate : 24.000 FPS
Color space : YUV
Chroma subsampling : 4:2:0
Bit depth : 8 bits
Scan type : Progressive
Bits/(Pixel*Frame) : 0.128
Stream size : 3.07 GiB (75%)
Title : [MINI Super-HQ]_Fallen.2016.1080p.BrRip.DTS.x264.One2loadup.com
Writing library : x264 core 130 r2273 b3065e6
Encoding settings : cabac=1 / ref=3 / deblock=1:0:0 / analyse=0x3:0x113 / me=umh / subme=11 / psy=1 / psy_rd=1.00:0.00 / mixed_ref=1 / me_range=16 / chroma_me=1 / trellis=2 / 8x8dct=1 / cqm=0 / deadzone=21,11 / fast_pskip=1 / chroma_qp_offset=-2 / threads=24 / lookahead_threads=2 / sliced_threads=0 / nr=0 / decimate=1 / interlaced=0 / bluray_compat=0 / constrained_intra=0 / bframes=3 / b_pyramid=2 / b_adapt=1 / b_bias=0 / direct=1 / weightb=1 / open_gop=0 / weightp=2 / keyint=240 / keyint_min=24 / scenecut=40 / intra_refresh=0 / rc_lookahead=40 / rc=2pass / mbtree=1 / bitrate=4808 / ratetol=1.0 / qcomp=0.60 / qpmin=0 / qpmax=69 / qpstep=4 / cplxblur=20.0 / qblur=0.5 / ip_ratio=1.40 / aq=1:1.00
Language : English
Default : Yes
Forced : No
Color range : Limited
Color primaries : BT.709
Transfer characteristics : BT.709
Matrix coefficients : BT.709

Audio #1
ID : 2
Format : DTS
Format/Info : Digital Theater Systems
Mode : 16
Format settings, Endianness : Big
Codec ID : A_DTS
Duration : 1 h 31 min
Bit rate mode : Constant
Bit rate : 755 kb/s
Channel(s) : 6 channels
Channel positions : Front: L C R, Side: L R, LFE
Sampling rate : 48.0 kHz
Frame rate : 93.750 FPS (512 SPF)
Bit depth : 24 bits
Compression mode : Lossy
Delay relative to video : 2 s 0 ms
Stream size : 494 MiB (12%)
Title : Thai DTS BluRay Master
Language : Thai
Default : Yes
Forced : Yes

Audio #2
ID : 3
Format : DTS
Format/Info : Digital Theater Systems
Mode : 16
Format settings, Endianness : Big
Codec ID : A_DTS
Duration : 1 h 31 min
Bit rate mode : Constant
Bit rate : 755 kb/s
Channel(s) : 6 channels
Channel positions : Front: L C R, Side: L R, LFE
Sampling rate : 48.0 kHz
Frame rate : 93.750 FPS (512 SPF)
Bit depth : 24 bits
Compression mode : Lossy
Delay relative to video : 2 s 0 ms
Stream size : 494 MiB (12%)
Title : English DTS
Language : English
Default : No
Forced : No

Text #1
ID : 4
Format : VobSub
Codec ID : S_VOBSUB
Codec ID/Info : Picture based subtitle format used on DVDs
Title : Thai 480p
Language : Thai
Default : No
Forced : No

Text #2
ID : 5
Format : VobSub
Codec ID : S_VOBSUB
Codec ID/Info : Picture based subtitle format used on DVDs
Title : Thai 1080p
Language : Thai
Default : Yes
Forced : Yes

Text #3
ID : 6
Format : VobSub
Codec ID : S_VOBSUB
Codec ID/Info : Picture based subtitle format used on DVDs
Title : Thai 1080p Yellow
Language : Thai
Default : No
Forced : No

Text #4
ID : 7
Format : VobSub
Codec ID : S_VOBSUB
Codec ID/Info : Picture based subtitle format used on DVDs
Title : Thai 1080p Out
Language : Thai
Default : No
Forced : No

Text #5
ID : 8
Format : VobSub
Codec ID : S_VOBSUB
Codec ID/Info : Picture based subtitle format used on DVDs
Title : Thai 1080p BIG
Language : Thai
Default : No
Forced : No

Text #6
ID : 9
Format : PGS
Codec ID : S_HDMV/PGS
Codec ID/Info : Picture based subtitle format used on BDs/HD-DVDs
Title : Thai PGS BluRay Master
Language : Thai
Default : No
Forced : No

Text #7
ID : 10
Format : PGS
Codec ID : S_HDMV/PGS
Codec ID/Info : Picture based subtitle format used on BDs/HD-DVDs
Title : Thai PGS Out
Language : Thai
Default : No
Forced : No

Text #8
ID : 11
Format : PGS
Codec ID : S_HDMV/PGS
Codec ID/Info : Picture based subtitle format used on BDs/HD-DVDs
Title : English
Language : English
Default : No
Forced : No

Menu
00:00:00.000 : en:Chapter 1
00:07:19.606 : en:Chapter 2
00:16:57.725 : en:Chapter 3
00:23:12.349 : en:Chapter 4
00:32:41.626 : en:Chapter 5
00:39:28.241 : en:Chapter 6
00:47:24.341 : en:Chapter 7
00:55:38.293 : en:Chapter 8
01:00:34.214 : en:Chapter 9
01:10:37.942 : en:Chapter 10
01:15:14.885 : en:Chapter 11
01:25:35.297 : en:Chapter 12

 



PART01 |||| PART02 |||| PART03 |||| PART04 |||| PART05


PART01 |||| PART02 |||| PART03 |||| PART04 |||| PART05

PART01 |||| PART02 |||| PART03 |||| PART04 |||| PART05

PART01 |||| PART02 |||| PART03 |||| PART04 |||| PART05


Leave A Reply

Your email address will not be published.

%d bloggers like this: