[MINI-HD] A Few Good Men (1992) เทพบุตรเกียรติยศ [1080p] [พากย์ไทย 5.1 + เสียงอังกฤษ DTS] [บรรยายไทย + อังกฤษ] [เสียงไทย + ซับไทย] [OPENLOAD]

0

A Few Good Men (1992)

โหลดหนัง A Few Good Men (1992) เทพบุตรเกียรติยศ

A Few Good Men (1992) 2h 18min | Drama, Thriller | 11 December 1992 (USA) Summary: Military lawyer Lieutenant Daniel Kaffee defends Marines accused of murder. They contend they were acting under orders.
Countries: USALanguages: English, French

เรื่องย่อ A Few Good Men (1992) เทพบุตรเกียรติยศ

หนังดราม่าชวนตื่นเต้น ที่เกี่ยวกับการพิจารณาคดีความในศาลเรื่องนี้ เรือโทแดเนียล คัฟฟี (ทอม ครู๊ซ) ทนายความของกองทัพเรือ ผู้ไม่เคยได้เข้าห้องไต่สวนคดีแม้แต่ครั้งเดียว ได้สู้คดีให้กับทหารนาวิกโยธินอับโชคสองนาย (วูลฟ์แกง โบดิสัน และ เจมส์ มาร์แชล) ในข้อหาฆ่าเพื่อนที่ฐานทัพในคิวบา แม้ว่าแดเนียลค่อนข้างจะขึ้นชื่อว่าเป็นคนเกียจคร้าน ในที่สุดเขาก็ตัดสินใจทุ่มเททำคดีนี้อย่างเต็มที่ ร่วมกับ นาวาโทกัลโลเวย์ (เดมิ มัวร์) และ เรือโทแซม ไวน์เบิร์ก (เควิน พอลแล็ก) โดยมุ่งไปที่ประเด็นที่ว่า ผู้ตาย คือ พลทหารเรือซานติเอโก ได้รับ “รหัสแดง” (รหัสของการลงโทษแบบลับ) จากการที่ทำอะไรผิดพลาดอยู่บ่อย ๆ โดย นาวาเอกนาธาน เจสเซ็ป (แจ๊ค นิโคลสัน) เป็นผู้สั่ง ในคิวบา เจสเซป กับนายทหารระดับสูงสองนาย (เจ ที วอล์ช และ คีเฟอร์ ซุเธอร์แลนด์) พยายามจะเฉไฉจากประเด็นที่คัฟฟีเปิด แต่คัฟฟีรู้ว่าเรื่องนี้มีบางอย่างน่าเคลือบเคลือง และท้ายที่สุดอารมณ์ที่อัดแน่นอยู่จึงระเบิดออกมา ในการเผชิญหน้าระหว่างเจสเซ็ปและคัฟฟี!!!

Complete name : [MINI-HD]_A.Few.Good.Men.1080p.BrRip.DTS.x264.One2loadup.com.mkv
Format : Matroska
Format version : Version 2
File size : 4.89 GiB
Duration : 2 h 18 min
Overall bit rate mode : Variable
Overall bit rate : 5 073 kb/s
Movie name : [MINI-HD]_A.Few.Good.Men.1080p.BrRip.DTS.x264.One2loadup.com
Encoded date : UTC 2013-11-29 13:49:28
Writing application : mkvmerge v2.8.0 (‘The Tree’) built on May 9 2009 18:02:06
Writing library : libebml v0.7.7 + libmatroska v0.8.1

Video
ID : 1
Format : AVC
Format/Info : Advanced Video Codec
Format profile : [email protected]
Format settings : CABAC / 3 Ref Frames
Format settings, CABAC : Yes
Format settings, ReFrames : 3 frames
Codec ID : V_MPEG4/ISO/AVC
Duration : 2 h 18 min
Bit rate mode : Variable
Bit rate : 3 113 kb/s
Maximum bit rate : 25.0 Mb/s
Width : 1 920 pixels
Height : 816 pixels
Display aspect ratio : 2.35:1
Frame rate mode : Constant
Frame rate : 23.976 (24000/1001) FPS
Color space : YUV
Chroma subsampling : 4:2:0
Bit depth : 8 bits
Scan type : Progressive
Bits/(Pixel*Frame) : 0.083
Stream size : 2.91 GiB (59%)
Title : [MINI-HD]_A.Few.Good.Men.1080p.BrRip.DTS.x264.One2loadup.com
Writing library : x264 core 104 r1683 62997d6
Encoding settings : cabac=1 / ref=3 / deblock=1:0:0 / analyse=0x3:0x133 / me=umh / subme=7 / psy=1 / psy_rd=1.00:0.00 / mixed_ref=1 / me_range=16 / chroma_me=1 / trellis=1 / 8x8dct=1 / cqm=0 / deadzone=21,11 / fast_pskip=1 / chroma_qp_offset=-2 / threads=12 / sliced_threads=0 / nr=0 / decimate=1 / interlaced=0 / constrained_intra=0 / bframes=3 / b_pyramid=0 / b_adapt=1 / b_bias=0 / direct=1 / weightb=1 / open_gop=0 / weightp=2 / keyint=240 / keyint_min=24 / scenecut=40 / intra_refresh=0 / rc_lookahead=40 / rc=2pass / mbtree=1 / bitrate=3113 / ratetol=1.0 / qcomp=0.60 / qpmin=10 / qpmax=51 / qpstep=4 / cplxblur=20.0 / qblur=0.5 / vbv_maxrate=25000 / vbv_bufsize=25000 / ip_ratio=1.40 / aq=1:1.00 / nal_hrd=vbr
Language : English
Default : Yes
Forced : Yes

Audio #1
ID : 2
Format : DTS
Format/Info : Digital Theater Systems
Codec ID : A_DTS
Duration : 2 h 18 min
Bit rate mode : Constant
Bit rate : 1 510 kb/s
Channel(s) : 6 channels
Channel layout : C L R Ls Rs LFE
Sampling rate : 48.0 kHz
Frame rate : 93.750 FPS (512 SPF)
Bit depth : 16 bits
Compression mode : Lossy
Stream size : 1.46 GiB (30%)
Language : English
Default : Yes
Forced : Yes

Audio #2
ID : 3
Format : AC-3
Format/Info : Audio Coding 3
Commercial name : Dolby Digital
Codec ID : A_AC3
Duration : 2 h 18 min
Bit rate mode : Constant
Bit rate : 448 kb/s
Channel(s) : 6 channels
Channel layout : L R C LFE Ls Rs
Sampling rate : 48.0 kHz
Frame rate : 31.250 FPS (1536 SPF)
Bit depth : 16 bits
Compression mode : Lossy
Stream size : 443 MiB (9%)
Language : Thai
Service kind : Complete Main
Default : No
Forced : No

Text #1
ID : 4
Format : VobSub
Muxing mode : zlib
Codec ID : S_VOBSUB
Codec ID/Info : Picture based subtitle format used on DVDs
Language : Thai
Default : Yes
Forced : Yes

Text #2
ID : 5
Format : UTF-8
Codec ID : S_TEXT/UTF8
Codec ID/Info : UTF-8 Plain Text
Language : English
Default : No
Forced : No

Menu
00:00:00.000 : en:Chapter 1
00:07:58.895 : en:Chapter 2
00:16:32.158 : en:Chapter 3
00:25:08.674 : en:Chapter 4
00:40:06.738 : en:Chapter 5
00:47:42.026 : en:Chapter 6
00:57:11.303 : en:Chapter 7
01:05:26.506 : en:Chapter 8
01:13:03.713 : en:Chapter 9
01:22:52.551 : en:Chapter 10
01:26:20.133 : en:Chapter 11
01:31:10.382 : en:Chapter 12
01:39:52.820 : en:Chapter 13
01:54:37.829 : en:Chapter 14
02:02:41.229 : en:Chapter 15
02:10:35.119 : en:Chapter 16

DOWNLOAD


PART01 |||| PART02 |||| PART03 |||| PART04 |||| PART05

PART01 |||| PART02 |||| PART03 |||| PART04 |||| PART05

PART01 |||| PART02 |||| PART03 |||| PART04 |||| PART05

PART01 |||| PART02 |||| PART03 |||| PART04 |||| PART05


Leave A Reply

Your email address will not be published.