โหลดหนัง HD MINI-HD SUPER-HQ Full-HD 1080p VIP Master Zoom ซูม หนังใหม่ ออนไลน์ มาสเตอร์ ไทย จีน ฝรั่ง การ์ตูน

[MINI-HD] ขุนพันธ์ (2016) Khun phan [720p] [พากย์ไทย 5.1] [บรรยายไทย] [เสียงไทย Master + ซับไทย]

0

โหลดหนัง  ขุนพันธ์ (2016) Khun phan

เรื่องย่อ ขุนพันธ์ (2016) Khun phan

ในขณะที่สงครามโลกครั้งที่ 2 กำลังก่อตัวขึ้น ญี่ปุ่นเริ่มแผ่ขยายอำนาจรุกรานทั่วเอเชีย รวมทั้งประเทศไทยที่กำลังเกิดการปฏิวัติทางวัฒนธรรมครั้งใหญ่เพื่อเตรียมก้าวสู่โลกอารยะ เมื่อความเจริญเริ่มรุกล้ำแต่ผู้คนกลับขัดสนยากจน ถูกกดหัวอยู่ภายใต้อาณัติของเหล่าชุมโจรเสือร้ายที่ก่อร่างสร้างอิทธิพลไปทั่วหาได้หวั่นเกรงต่อกฎหมายแต่อย่างใด นั่นเป็นเพราะมีข้าราชการใจคดขายชาติคอยชักใยหนุนหลังเก็บเกี่ยวผลประโยชน์อยู่จังหวัดชุมพร ปีพ.ศ.2481 ทั้ง ๆ ที่ปืนในมือเหลือกระสุนเพียงนัดเดียวแต่นายบุตร์ หรือ ร้อยตำรวจโท ขุนพันธ์รักษ์ราชเดช (อนันดา เอเวอริงแฮม) นายร้อยตำรวจหนุ่มฝึกหัดก็ได้อาศัยความสามารถ และวิชาที่บ่มเพาะติดตัวมาเด็ดชีพ

Complete name : [MINI-HD]_Khun-Pun.2016.720p.x264.AC3.One2loadup.com.mkv
Format : Matroska
Format version : Version 4 / Version 2
File size : 3.38 GiB
Duration : 1 h 45 min
Overall bit rate : 4 605 kb/s
Encoded date : UTC 2016-10-25 16:54:42
Writing application : mkvmerge v7.7.0 (‘Six Voices’) 32bit built on Feb 28 2015 23:23:00
Writing library : libebml v1.3.1 + libmatroska v1.4.2

Video
ID : 1
Format : AVC
Format/Info : Advanced Video Codec
Format profile : [email protected]
Format settings : CABAC / 4 Ref Frames
Format settings, CABAC : Yes
Format settings, ReFrames : 4 frames
Codec ID : V_MPEG4/ISO/AVC
Duration : 1 h 45 min
Bit rate : 4 207 kb/s
Width : 1 280 pixels
Height : 528 pixels
Display aspect ratio : 2.40:1
Frame rate mode : Constant
Frame rate : 25.000 FPS
Color space : YUV
Chroma subsampling : 4:2:0
Bit depth : 8 bits
Scan type : Progressive
Bits/(Pixel*Frame) : 0.249
Stream size : 3.05 GiB (90%)
Writing library : x264 core 146 r2538 121396c
Encoding settings : cabac=1 / ref=3 / deblock=1:0:0 / analyse=0x3:0x113 / me=umh / subme=10 / psy=1 / psy_rd=1.00:0.00 / mixed_ref=1 / me_range=24 / chroma_me=1 / trellis=2 / 8x8dct=1 / cqm=0 / deadzone=21,11 / fast_pskip=1 / chroma_qp_offset=-2 / threads=12 / lookahead_threads=1 / sliced_threads=0 / nr=0 / decimate=1 / interlaced=0 / bluray_compat=0 / constrained_intra=0 / bframes=3 / b_pyramid=2 / b_adapt=1 / b_bias=0 / direct=1 / weightb=1 / open_gop=0 / weightp=2 / keyint=250 / keyint_min=25 / scenecut=40 / intra_refresh=0 / rc_lookahead=40 / rc=abr / mbtree=1 / bitrate=4207 / ratetol=1.0 / qcomp=0.60 / qpmin=0 / qpmax=69 / qpstep=4 / ip_ratio=1.40 / aq=1:1.00
Default : Yes
Forced : No

Audio
ID : 2
Format : AC-3
Format/Info : Audio Coding 3
Codec ID : A_AC3
Duration : 1 h 45 min
Bit rate mode : Constant
Bit rate : 448 kb/s
Channel(s) : 6 channels
Channel positions : Front: L C R, Side: L R, LFE
Sampling rate : 48.0 kHz
Frame rate : 31.250 FPS (1536 SPF)
Bit depth : 16 bits
Compression mode : Lossy
Stream size : 337 MiB (10%)
Language : Thai
Service kind : Complete Main
Default : Yes
Forced : No

Text
ID : 3
Format : VobSub
Muxing mode : zlib
Codec ID : S_VOBSUB
Codec ID/Info : Picture based subtitle format used on DVDs
Duration : 1 h 17 min
Bit rate : 78 b/s
Count of elements : 33
Stream size : 44.5 KiB (0%)
Language : Thai
Default : No
Forced : No

Menu
00:00:00.080 : en:Chapter 01
00:11:59.080 : en:Chapter 02
00:17:51.160 : en:Chapter 03
00:23:11.600 : en:Chapter 04
00:33:41.760 : en:Chapter 05
00:41:41.640 : en:Chapter 06
00:49:32.080 : en:Chapter 07
01:01:26.880 : en:Chapter 08
01:16:59.920 : en:Chapter 09
01:24:14.760 : en:Chapter 10
01:29:49.920 : en:Chapter 11
01:40:13.600 : en:Chapter 12

DOWNLOAD


PART01 |||| PART02 |||| PART03 |||| PART04

PART01 |||| PART02 |||| PART03 |||| PART04

PART01 |||| PART02 |||| PART03 |||| PART04

PART01 |||| PART02 |||| PART03 |||| PART04


Leave A Reply

Your email address will not be published.

%d bloggers like this: