โหลดหนัง HD MINI-HD SUPER-HQ Full-HD 1080p VIP Master Zoom ซูม หนังใหม่ ออนไลน์ มาสเตอร์ ไทย จีน ฝรั่ง การ์ตูน

[จีน] Legend Of The Naga Pearls (Jiao Zhu Chuan) (2017) อภินิหารตำนานมุกนาคี [1080p] [พากย์ไทยมาสเตอร์ 5.1] [ไม่มีบรรยาย] [เสียงไทย] [ONE2UP]

0

โหลดหนัง Legend Of The Naga Pearls (Jiao Zhu Chuan) (2017) อภินิหารตำนานมุกนาคี

เรื่องย่อ Legend Of The Naga Pearls (Jiao Zhu Chuan) (2017) อภินิหารตำนานมุกนาคี

หนีคงคง หรือ เซียนดาวโจร หนุ่มพเนจรจอมต้มตุ๋นที่ดันไปครอบครอง ไข่มุกนาคี อาวุธทรงพลังที่หัวหน้าเผ่าปักษากำลังตามหาอยู่ เพื่อใช้เป็นอาวุธในการฆ่าล้างเผ่าพันธุ์มนุษย์ หนีคงคง เลยโดนตามไล่ล่าจากเหล่าปักษา เขาจึงต้องหาทางเอาชีวิตรอด ไปพร้อมๆกับปกป้องเผ่ามนุษย์เอาไว้ให้จงได้

Complete name : Legend.of.the.Naga.Pearls.2017.1080p.One2loadup.com.mp4
Format : MPEG-4
Format profile : Base Media / Version 2
Codec ID : mp42 (isom/iso2/avc1/mp41)
File size : 3.90 GiB
Duration : 1 h 47 min
Overall bit rate mode : Variable
Overall bit rate : 5 180 kb/s
Encoded date : UTC 2018-05-28 01:31:26
Tagged date : UTC 2018-05-28 01:31:26
Writing application : HandBrake 1.0.7 2017040900

Video
ID : 1
Format : AVC
Format/Info : Advanced Video Codec
Format profile : [email protected]
Format settings : CABAC / 4 Ref Frames
Format settings, CABAC : Yes
Format settings, ReFrames : 4 frames
Codec ID : avc1
Codec ID/Info : Advanced Video Coding
Duration : 1 h 47 min
Bit rate : 5 011 kb/s
Width : 1 920 pixels
Height : 1 080 pixels
Display aspect ratio : 16:9
Frame rate mode : Constant
Frame rate : 24.000 FPS
Color space : YUV
Chroma subsampling : 4:2:0
Bit depth : 8 bits
Scan type : Progressive
Bits/(Pixel*Frame) : 0.101
Stream size : 3.78 GiB (97%)
Writing library : x264 core 148 r2708 86b7198
Encoding settings : cabac=1 / ref=2 / deblock=1:0:0 / analyse=0x1:0x111 / me=hex / subme=6 / psy=1 / psy_rd=1.00:0.00 / mixed_ref=1 / me_range=16 / chroma_me=1 / trellis=1 / 8x8dct=0 / cqm=0 / deadzone=21,11 / fast_pskip=1 / chroma_qp_offset=-2 / threads=6 / lookahead_threads=1 / sliced_threads=0 / nr=0 / decimate=1 / interlaced=0 / bluray_compat=0 / constrained_intra=0 / bframes=3 / b_pyramid=2 / b_adapt=1 / b_bias=0 / direct=1 / weightb=1 / open_gop=0 / weightp=1 / keyint=240 / keyint_min=24 / scenecut=40 / intra_refresh=0 / rc_lookahead=30 / rc=crf / mbtree=1 / crf=22.0 / qcomp=0.60 / qpmin=0 / qpmax=69 / qpstep=4 / vbv_maxrate=20000 / vbv_bufsize=25000 / crf_max=0.0 / nal_hrd=none / filler=0 / ip_ratio=1.40 / aq=1:1.00
Encoded date : UTC 2018-05-28 01:31:26
Tagged date : UTC 2018-05-28 01:31:26
Color range : Limited
Color primaries : BT.709
Transfer characteristics : BT.709
Matrix coefficients : BT.709

Audio
ID : 2
Format : AAC
Format/Info : Advanced Audio Codec
Format profile : LC
Codec ID : mp4a-40-2
Duration : 1 h 47 min
Bit rate mode : Variable
Bit rate : 160 kb/s
Channel(s) : 2 channels
Channel positions : Front: L R
Sampling rate : 44.1 kHz
Frame rate : 43.066 FPS (1024 SPF)
Compression mode : Lossy
Stream size : 124 MiB (3%)
Title : Stereo / Stereo
Language : Thai
Default : Yes
Alternate group : 1
Encoded date : UTC 2018-05-28 01:31:26
Tagged date : UTC 2018-05-28 01:31:26

DOWNLOAD


PART01 |||| PART02 |||| PART03 |||| PART04

PART01 |||| PART02 |||| PART03 |||| PART04

PART01 |||| PART02 |||| PART03 |||| PART04

PART01 |||| PART02 |||| PART03 |||| PART04


Leave A Reply

Your email address will not be published.

%d bloggers like this: