เว็บโหลดหนัง HD MINI-HD SUPER-HQ Full-HD 1080p One2up VIP Master Zoom ซูม หนังใหม่ ออนไลน์ มาสเตอร์ ไทย จีน ฝรั่ง การ์ตูน

[Mini-HD] Gone Baby Gone (2007) สืบลับเค้นปมอันตราย [1080p] [พากย์ไทย + อังกฤษ DTS] [ซับไทย + อังกฤษ] [ONE2UP]

0

โหลดหนัง  [Mini-HD] Gone Baby Gone (2007) สืบลับเค้นปมอันตราย [1080p] [พากย์ไทย + อังกฤษ DTS] [ซับไทย + อังกฤษ] [ONE2UP] 

เรื่องย่อ Gone Baby Gone (2007) สืบลับเค้นปมอันตราย

เมื่อ อแมนด้า แม็กเครดี้ย์ (มาเดอลีน โอไบรอัน) หนูน้อยวัย 4 ขวบ ได้หายตัวออกไปจากบ้านและความคืบหน้าในการดำเนินคดีของตำรวจนั้นก็ล่าช้า บีทริก แม็กเครดี้ย์ (เอมี่ มาดิแกน) ผู้เป็นน้าจึงว่าจ้างนักสืบส่วนตัว 2 คนคือ แพทริก เคนซี่ (เคซีย์ เอฟเฟล็ก) และแองจี้ เก็นนาโร (มิเชล โมนาแกน) ให้มาช่วยติดตาม

นักสืบอิสระทั้งคู่นั้นต่างก็มีประสบการณ์ในคดีแบบนี้น้อยมาก แต่พวกเขาก็เป็นที่ต้องการ เนื่องจากเหตุผล 2 ประการ คือ พวกเขาไม่ใช่ตำรวจ และ พวกเขาก็รู้จักสถานที่ที่เหี้ยมโหดที่พวกเขาพักอาศัยเป็นอย่างดี

เมื่อการทำงานเริ่มขึ้น แพทริก และ แองจี้ ต้องเผชิญหน้ากับกลุ่มผู้ค้ายาเสพติด และเมื่องานนี้สิ้นสุดลง พวกเขาก็ต้องเจอกับความขัดแย้งภายในจิตใจ

Complete name : [Mini-HD] Gone.Baby.Gone.2007.1080p.DTS.BrRip.x264.One2loadup.com.mkv
Format : Matroska
Format version : Version 2
File size : 3.93 GiB
Duration : 1 h 53 min
Overall bit rate : 4 940 kb/s
Movie name : [Mini-HD] Gone.Baby.Gone.2007.1080p.DTS.BrRip.x264.One2loadup.com.
Encoded date : UTC 2017-04-10 17:01:10
Writing application : mkvmerge v5.8.0 (‘No Sleep / Pillow’) built on Sep 2 2012 15:37:04
Writing library : libebml v1.2.3 + libmatroska v1.3.0

Video
ID : 1
Format : AVC
Format/Info : Advanced Video Codec
Format profile : [email protected]
Format settings, CABAC : Yes
Format settings, RefFrames : 4 frames
Codec ID : V_MPEG4/ISO/AVC
Duration : 1 h 53 min
Bit rate : 3 630 kb/s
Width : 1 920 pixels
Height : 1 040 pixels
Display aspect ratio : 1.85:1
Frame rate mode : Constant
Frame rate : 23.976 (24000/1001) FPS
Color space : YUV
Chroma subsampling : 4:2:0
Bit depth : 8 bits
Scan type : Progressive
Bits/(Pixel*Frame) : 0.076
Stream size : 2.90 GiB (74%)
Title : [Mini-HD] Gone.Baby.Gone.2007.1080p.DTS.BrRip.x264.One2loadup.com.
Writing library : x264 core 146 r2538 121396c
Encoding settings : cabac=1 / ref=4 / deblock=1:0:0 / analyse=0x3:0x113 / me=umh / subme=10 / psy=1 / psy_rd=1.00:0.15 / mixed_ref=1 / me_range=48 / chroma_me=1 / trellis=2 / 8x8dct=1 / cqm=0 / deadzone=21,11 / fast_pskip=0 / chroma_qp_offset=-3 / threads=12 / lookahead_threads=1 / sliced_threads=0 / nr=0 / decimate=1 / interlaced=0 / bluray_compat=0 / constrained_intra=0 / bframes=4 / b_pyramid=2 / b_adapt=2 / b_bias=0 / direct=3 / weightb=1 / open_gop=0 / weightp=2 / keyint=250 / keyint_min=23 / scenecut=40 / intra_refresh=0 / rc_lookahead=40 / rc=2pass / mbtree=1 / bitrate=3630 / ratetol=1.0 / qcomp=0.60 / qpmin=0 / qpmax=69 / qpstep=4 / cplxblur=20.0 / qblur=0.5 / vbv_maxrate=14000 / vbv_bufsize=14000 / nal_hrd=none / filler=0 / ip_ratio=1.40 / aq=1:0.90
Language : English
Default : Yes
Forced : Yes

Audio #1
ID : 2
Format : AC-3
Format/Info : Audio Coding 3
Format settings, Endianness : Big
Codec ID : A_AC3
Duration : 1 h 53 min
Bit rate mode : Constant
Bit rate : 448 kb/s
Channel(s) : 2 channels
Channel positions : Front: L R
Sampling rate : 48.0 kHz
Frame rate : 31.250 FPS (1536 SPF)
Bit depth : 16 bits
Compression mode : Lossy
Delay relative to video : 3 s 250 ms
Stream size : 365 MiB (9%)
Title : THAI DVD 2.0 @ 448 Kbps
Language : Thai
Service kind : Complete Main
Default : Yes
Forced : Yes

Audio #2
ID : 3
Format : DTS
Format/Info : Digital Theater Systems
Mode : 16
Format settings, Endianness : Big
Codec ID : A_DTS
Duration : 1 h 53 min
Bit rate mode : Constant
Bit rate : 755 kb/s
Channel(s) : 6 channels
Channel positions : Front: L C R, Side: L R, LFE
Sampling rate : 48.0 kHz
Frame rate : 93.750 FPS (512 SPF)
Bit depth : 24 bits
Compression mode : Lossy
Stream size : 615 MiB (15%)
Title : ENG DTS 5.1 @ 755 Kbps
Language : English
Default : No
Forced : No

Text #1
ID : 4
Format : VobSub
Codec ID : S_VOBSUB
Codec ID/Info : Picture based subtitle format used on DVDs
Title : THAI 480p DVD Master
Language : Thai
Default : No
Forced : No

Text #2
ID : 5
Format : VobSub
Codec ID : S_VOBSUB
Codec ID/Info : Picture based subtitle format used on DVDs
Title : THAI 1080p
Language : Thai
Default : Yes
Forced : Yes

Text #3
ID : 6
Format : VobSub
Codec ID : S_VOBSUB
Codec ID/Info : Picture based subtitle format used on DVDs
Title : THAI 1080p Yellow
Language : Thai
Default : No
Forced : No

Text #4
ID : 7
Format : VobSub
Codec ID : S_VOBSUB
Codec ID/Info : Picture based subtitle format used on DVDs
Title : THAI 1080p Out
Language : Thai
Default : No
Forced : No

Text #5
ID : 8
Format : PGS
Codec ID : S_HDMV/PGS
Codec ID/Info : Picture based subtitle format used on BDs/HD-DVDs
Title : THAI PGS 1080p
Language : Thai
Default : No
Forced : No

Text #6
ID : 9
Format : PGS
Codec ID : S_HDMV/PGS
Codec ID/Info : Picture based subtitle format used on BDs/HD-DVDs
Title : THAI PGS 1080p Out
Language : Thai
Default : No
Forced : No

Text #7
ID : 10
Format : UTF-8
Codec ID : S_TEXT/UTF8
Codec ID/Info : UTF-8 Plain Text
Title : ENG SRT
Language : English
Default : No
Forced : No

Menu
00:00:00.000 : en:01. Missing Child
00:05:22.488 : en:02. Kenzie & Gennaro, Private Investigators
00:10:05.104 : en:03. Meeting Helene
00:16:28.445 : en:04. The Fillmore
00:20:51.750 : en:05. The Suspects
00:25:30.695 : en:06. Questioning Helene
00:30:31.871 : en:07. Find Ray, Find the Money
00:35:47.145 : en:08. “I Promise”
00:37:11.062 : en:09. “She’s Gone, Baby, Gone”
00:44:31.877 : en:10. The Quarry
00:52:06.623 : en:11. Still Missing
00:56:24.714 : en:12. “This Time Around”
01:02:16.357 : en:13. “No Right to Live”
01:08:44.036 : en:14. “Pick a Side”
01:13:31.323 : en:15. “Let It Go”
01:19:15.333 : en:16. Lionel Comes Clean
01:27:00.965 : en:17. “Die With Your Secrets”
01:31:03.332 : en:18. “Are You Sure?”
01:39:31.465 : en:19. “She’s Better Off”
01:44:09.785 : en:20. Reality
01:49:06.081 : en:21. End Credits

 




PART01 |||| PART02 |||| PART03 |||| PART04


PART01 |||| PART02 |||| PART03 |||| PART04


PART01 |||| PART02 |||| PART03 |||| PART04


Leave A Reply

Your email address will not be published.

%d bloggers like this: