[MINI Super-HQ] Gifted (2017) อัจฉริยะสุดดวงใจ [1080p] [พากย์ไทย 5.1 + เสียงอังกฤษ DTS] [บรรยายไทย + อังกฤษ] [เสียงไทย + ซับไทย] [OPENLOAD]

3

Gifted (2017)

โหลดหนัง Gifted (2017) อัจฉริยะสุดดวงใจ

Gifted (2017) 1h 41min | Drama | 12 April 2017 (USA) Summary: Frank, a single man raising his child prodigy niece Mary, is drawn into a custody battle with his mother.
Countries: USALanguages: English

เรื่องย่อ Gifted (2017) อัจฉริยะสุดดวงใจ

แฟรงค์ (คริส อีแวนส์) หนุ่มโสดที่ต้องเลี้ยงดูเด็กน้อยอัจฉริยะ แมรี่ (แม็คเคนน่า เกรซ) หลานสาวผู้เต็มเปี่ยมไปด้วยพลังของเขาให้เติบโตขึ้นม าในเมืองเล็กๆ แถบชายฝั่งของรัฐฟลอริดา
เดิมทีแฟรงค์มีแผนจะส่งแมรี่เข้าไปใช้ชีวิตในโรงเรีย นธรรมดาๆ แต่แล้วแผนของเขาก็ถูกขัดขวาง เมื่อความอัจฉริยะด้านคณิตศาสตร์ของเด็กน้อยวัย 7 ขวบนั้น
ทำให้ย่าของเธอ เอเวอลิน (ลินเซ่ย์ ดันเคน) สนใจในตัวหลานสาวเป็นอย่างมาก แล้วก็พยายามคิดวางแผนเข้ามาแทรกแซงระหว่างเขาทั้งสอ งเป็นเหตุให้เกิดความวุ่นวายตามมา.!!!

Complete name : [MINI Super-HQ]_Gifted.2017.1080p.BrRip.DTS.x264.One2loadup.com.mkv
Format : Matroska
Format version : Version 4
File size : 4.01 GiB
Duration : 1 h 43 min
Overall bit rate : 5 538 kb/s
Movie name : [MINI Super-HQ]_Gifted.2017.1080p.BrRip.DTS.x264.One2loadup.com
Encoded date : UTC 2010-02-22 21:41:31
Writing application : mkvmerge v5.9.0 (‘On The Loose’) built on Dec 9 2012 15:37:01
Writing library : libebml v1.3.0 + libmatroska v1.4.0

Video
ID : 1
Format : AVC
Format/Info : Advanced Video Codec
Format profile : [email protected]
Format settings : CABAC / 4 Ref Frames
Format settings, CABAC : Yes
Format settings, ReFrames : 4 frames
Codec ID : V_MPEG4/ISO/AVC
Duration : 1 h 43 min
Bit rate : 4 202 kb/s
Width : 1 920 pixels
Height : 800 pixels
Display aspect ratio : 2.40:1
Frame rate mode : Constant
Frame rate : 23.976 (24000/1001) FPS
Color space : YUV
Chroma subsampling : 4:2:0
Bit depth : 8 bits
Scan type : Progressive
Bits/(Pixel*Frame) : 0.114
Stream size : 3.06 GiB (76%)
Title : [MINI Super-HQ][email protected]
Writing library : x264 core 130 r2273 b3065e6
Encoding settings : cabac=1 / ref=3 / deblock=1:0:0 / analyse=0x3:0x113 / me=umh / subme=11 / psy=1 / psy_rd=1.00:0.00 / mixed_ref=1 / me_range=48 / chroma_me=1 / trellis=2 / 8x8dct=1 / cqm=0 / deadzone=21,11 / fast_pskip=1 / chroma_qp_offset=-2 / threads=10 / lookahead_threads=1 / sliced_threads=0 / nr=0 / decimate=1 / interlaced=0 / bluray_compat=0 / constrained_intra=0 / bframes=3 / b_pyramid=2 / b_adapt=1 / b_bias=0 / direct=1 / weightb=1 / open_gop=0 / weightp=2 / keyint=240 / keyint_min=24 / scenecut=40 / intra_refresh=0 / rc_lookahead=40 / rc=2pass / mbtree=1 / bitrate=4202 / ratetol=1.0 / qcomp=0.60 / qpmin=0 / qpmax=69 / qpstep=4 / cplxblur=20.0 / qblur=0.5 / ip_ratio=1.40 / aq=1:1.00
Language : English
Default : Yes
Forced : No
Color range : Limited
Color primaries : BT.709
Transfer characteristics : BT.709
Matrix coefficients : BT.709

Audio #1
ID : 2
Format : AC-3
Format/Info : Audio Coding 3
Commercial name : Dolby Digital
Codec ID : A_AC3
Duration : 1 h 43 min
Bit rate mode : Constant
Bit rate : 448 kb/s
Channel(s) : 6 channels
Channel layout : L R C LFE Ls Rs
Sampling rate : 48.0 kHz
Frame rate : 31.250 FPS (1536 SPF)
Bit depth : 16 bits
Compression mode : Lossy
Stream size : 332 MiB (8%)
Title : Thai BluRay Master
Language : Thai
Service kind : Complete Main
Default : Yes
Forced : Yes

Audio #2
ID : 3
Format : DTS
Format/Info : Digital Theater Systems
Codec ID : A_DTS
Duration : 1 h 43 min
Bit rate mode : Constant
Bit rate : 755 kb/s
Channel(s) : 6 channels
Channel layout : C L R Ls Rs LFE
Sampling rate : 48.0 kHz
Frame rate : 93.750 FPS (512 SPF)
Bit depth : 24 bits
Compression mode : Lossy
Stream size : 559 MiB (14%)
Title : English DTS
Language : English
Default : No
Forced : No

Text #1
ID : 4
Format : VobSub
Codec ID : S_VOBSUB
Codec ID/Info : Picture based subtitle format used on DVDs
Title : Thai 480p
Language : Thai
Default : No
Forced : No

Text #2
ID : 5
Format : VobSub
Codec ID : S_VOBSUB
Codec ID/Info : Picture based subtitle format used on DVDs
Title : Thai 1080p
Language : Thai
Default : Yes
Forced : Yes

Text #3
ID : 6
Format : VobSub
Codec ID : S_VOBSUB
Codec ID/Info : Picture based subtitle format used on DVDs
Title : Thai 1080p Yellow
Language : Thai
Default : No
Forced : No

Text #4
ID : 7
Format : VobSub
Codec ID : S_VOBSUB
Codec ID/Info : Picture based subtitle format used on DVDs
Title : Thai 1080p Out
Language : Thai
Default : No
Forced : No

Text #5
ID : 8
Format : VobSub
Codec ID : S_VOBSUB
Codec ID/Info : Picture based subtitle format used on DVDs
Title : Thai 1080p BIG
Language : Thai
Default : No
Forced : No

Text #6
ID : 9
Format : PGS
Codec ID : S_HDMV/PGS
Codec ID/Info : Picture based subtitle format used on BDs/HD-DVDs
Title : Thai PGS BluRay Master
Language : Thai
Default : No
Forced : No

Text #7
ID : 10
Format : PGS
Codec ID : S_HDMV/PGS
Codec ID/Info : Picture based subtitle format used on BDs/HD-DVDs
Title : Thai PGS Angsana
Language : Thai
Default : No
Forced : No

Text #8
ID : 11
Format : PGS
Codec ID : S_HDMV/PGS
Codec ID/Info : Picture based subtitle format used on BDs/HD-DVDs
Title : Thai PGS Yellow
Language : Thai
Default : No
Forced : No

Text #9
ID : 12
Format : PGS
Codec ID : S_HDMV/PGS
Codec ID/Info : Picture based subtitle format used on BDs/HD-DVDs
Title : Thai PGS Out
Language : Thai
Default : No
Forced : No

Text #10
ID : 13
Format : PGS
Codec ID : S_HDMV/PGS
Codec ID/Info : Picture based subtitle format used on BDs/HD-DVDs
Title : English
Language : English
Default : No
Forced : No

Menu
00:00:00.000 : en:Chapter 1
00:04:36.318 : en:Chapter 2
00:07:49.302 : en:Chapter 3
00:12:55.525 : en:Chapter 4
00:18:50.004 : en:Chapter 5
00:22:23.008 : en:Chapter 6
00:29:13.126 : en:Chapter 7
00:33:18.830 : en:Chapter 8
00:37:56.441 : en:Chapter 9
00:42:57.825 : en:Chapter 10
00:45:34.357 : en:Chapter 11
00:48:06.675 : en:Chapter 12
00:50:58.806 : en:Chapter 13
00:54:31.852 : en:Chapter 14
00:59:06.001 : en:Chapter 15
01:03:52.954 : en:Chapter 16
01:08:44.787 : en:Chapter 17
01:14:52.279 : en:Chapter 18
01:19:29.348 : en:Chapter 19
01:23:44.770 : en:Chapter 20
01:26:54.793 : en:Chapter 21
01:29:38.832 : en:Chapter 22
01:32:49.272 : en:Chapter 23
01:35:36.773 : en:Chapter 24

 

DOWNLOAD


PART01 |||| PART02 |||| PART03 |||| PART04

PART01 |||| PART02 |||| PART03 |||| PART04

PART01 |||| PART02 |||| PART03 |||| PART04

PART01 |||| PART02 |||| PART03 |||| PART04


3 Comments
  1. Herobarua
    Herobarua says

    โหลดไม่ได้ครับโดนลบ(VIP)

  2. นาม says

    ไฟล์เสียหมดแล้วครับ อัพใหม่หน่อยครับ

    1. Admin
      Admin says

      แก้ไขเรียบร้อยฮ๊ะ

Leave A Reply

Your email address will not be published.