โหลดหนัง HD MINI-HD SUPER-HQ Full-HD 1080p VIP Master Zoom ซูม หนังใหม่ ออนไลน์ มาสเตอร์ ไทย จีน ฝรั่ง การ์ตูน

[FULL-HD LHQ] Universal Soldier (1992) 2 คนไม่ใช่คน ภาค 1 [1080p] [พากย์ไทย 5.1 + เสียงอังกฤษ DTS] [บรรยายไทย + อังกฤษ] [เสียงไทย + ซับไทย] [OPENLOAD]

Universal Soldier (1992) 2 คนไม่ใช่คน ภาค 1

โหลดหนัง Universal Soldier (1992) 2 คนไม่ใช่คน ภาค 1 

เรื่องย่อ Universal Soldier (1992) 2 คนไม่ใช่คน ภาค 1

เมื่อสองนักแสดงแอ็คชั่น มารวมกัน นำโดย Jean-claude Van Damme เป็น Lvo Devreaux และ Dolph Lundgren เป็น Sgt Andkew Scott สองทหารฝีมือเยี่ยมในสมรภูมิเวียดนาม 25 ปี ต่อมา เขาทั้งคู่ถูกพามาเพื่อทดลองภารกิจลับสุดยอดภายใต้รหัส “UNISOLS” ซึ่งเป็นการเปลี่ยนแปลงรูปแบบของการรบของมนุษยชาติ ให้เป็นทหารที่ไร้ความรู้สึกความทรงจำปฏิบัติตามอย่างเดียวคือ ฆ่าและทำลาย เมื่อ Lvo Devreaux กลับมามีความทรงจำอีกครั้งการต่อสู้เพื่อปกป้องครอบครัว และกอบกู้อิสรภาพจึงเริ่มขึ้น !!!

Complete name : [FULL-HD LHQ]_1.Universal.Soldier.1992.1080p.DTS.x264.One2loadup.com.mkv
Format : Matroska
Format version : Version 4
File size : 8.27 GiB
Duration : 1 h 43 min
Overall bit rate : 11.4 Mb/s
Movie name : [FULL-HD LHQ]_1.Universal.Soldier.1992.1080p.DTS.x264.One2loadup.com
Encoded date : UTC 2016-05-16 21:00:44
Writing application : mkvmerge v8.2.0 (‘World of Adventure’) 64bit
Writing library : libebml v1.3.1 + libmatroska v1.4.2

Video
ID : 1
Format : AVC
Format/Info : Advanced Video Codec
Format profile : [email protected]
Format settings : CABAC / 5 Ref Frames
Format settings, CABAC : Yes
Format settings, ReFrames : 5 frames
Codec ID : V_MPEG4/ISO/AVC
Duration : 1 h 43 min
Bit rate : 9 454 kb/s
Width : 1 920 pixels
Height : 816 pixels
Display aspect ratio : 2.35:1
Frame rate mode : Constant
Frame rate : 23.976 FPS
Color space : YUV
Chroma subsampling : 4:2:0
Bit depth : 8 bits
Scan type : Progressive
Bits/(Pixel*Frame) : 0.252
Stream size : 6.85 GiB (83%)
Title : [FULL-HD LHQ]_1.Universal.Soldier.1992.1080p.DTS.x264.One2loadup.com
Writing library : x264 core 65 r999 cc51047
Encoding settings : cabac=1 / ref=5 / deblock=1:0:0 / analyse=0x3:0x133 / me=umh / subme=7 / psy_rd=1.0:0.0 / mixed_ref=1 / me_range=16 / chroma_me=1 / trellis=1 / 8x8dct=1 / cqm=2 / deadzone=21,11 / chroma_qp_offset=-2 / threads=3 / nr=0 / decimate=1 / mbaff=0 / bframes=3 / b_pyramid=1 / b_adapt=1 / b_bias=0 / direct=1 / wpredb=1 / keyint=250 / keyint_min=25 / scenecut=40(pre) / rc=2pass / bitrate=9454 / ratetol=1.0 / qcomp=0.60 / qpmin=10 / qpmax=51 / qpstep=4 / cplxblur=20.0 / qblur=0.5 / ip_ratio=1.40 / pb_ratio=1.30 / aq=1:1.00
Language : English
Default : Yes
Forced : No

Audio #1
ID : 2
Format : AC-3
Format/Info : Audio Coding 3
Commercial name : Dolby Digital
Codec ID : A_AC3
Duration : 1 h 43 min
Bit rate mode : Constant
Bit rate : 448 kb/s
Channel(s) : 6 channels
Channel layout : L R C LFE Ls Rs
Sampling rate : 48.0 kHz
Frame rate : 31.250 FPS (1536 SPF)
Bit depth : 16 bits
Compression mode : Lossy
Delay relative to video : 19 s 500 ms
Stream size : 331 MiB (4%)
Title : Thai AC-3
Language : Thai
Service kind : Complete Main
Default : Yes
Forced : Yes

Audio #2
ID : 3
Format : DTS
Format/Info : Digital Theater Systems
Codec ID : A_DTS
Duration : 1 h 43 min
Bit rate mode : Constant
Bit rate : 1 509 kb/s
Channel(s) : 6 channels
Channel layout : C L R Ls Rs LFE
Sampling rate : 48.0 kHz
Frame rate : 93.750 FPS (512 SPF)
Bit depth : 24 bits
Compression mode : Lossy
Stream size : 1.09 GiB (13%)
Title : Eng DTS
Language : English
Default : No
Forced : No

Text #1
ID : 4
Format : VobSub
Muxing mode : zlib
Codec ID : S_VOBSUB
Codec ID/Info : Picture based subtitle format used on DVDs
Duration : 1 h 36 min
Bit rate : 2 300 b/s
Count of elements : 1065
Stream size : 1.59 MiB (0%)
Title : Thai
Language : Thai
Default : No
Forced : No

Text #2
ID : 5
Format : VobSub
Muxing mode : zlib
Codec ID : S_VOBSUB
Codec ID/Info : Picture based subtitle format used on DVDs
Duration : 1 h 40 min
Bit rate : 1 671 b/s
Count of elements : 1521
Stream size : 1.20 MiB (0%)
Title : Eng
Language : English
Default : No
Forced : No

DOWNLOAD


PART01 |||| PART02 |||| PART03 |||| PART04 |||| PART05

PART06 |||| PART07 |||| PART08 |||| PART09

PART01 |||| PART02 |||| PART03 |||| PART04 |||| PART05

PART06 |||| PART07 |||| PART08 |||| PART09

PART01 |||| PART02 |||| PART03 |||| PART04 |||| PART05

PART06 |||| PART07 |||| PART08 |||| PART09

PART01 |||| PART02 |||| PART03 |||| PART04 |||| PART05

PART06 |||| PART07 |||| PART08 |||| PART09


Leave A Reply

Your email address will not be published.

%d bloggers like this: