[MINI-HD] Arthur and the Invisibles (2006) อาร์เธอร์ ทูตจิ๋วเจาะขุมทรัพย์มหัศจรรย์ ภาค 1 [720p] [พากย์ไทย 5.1 + เสียงอังกฤษ 5.1] [บรรยายไทย + อังกฤษ] [เสียงไทย + ซับไทย] [PANDAFILE]

2

โหลดหนัง  Arthur and the Invisibles (2006) อาร์เธอร์ ทูตจิ๋วเจาะขุมทรัพย์มหัศจรรย์ ภาค 1

Arthur et les Minimoys (2006) 1h 34min | Animation, Adventure, Family | 31 January 2007 (Netherlands) Summary: Ten-year-old Arthur, in a bid to save his grandfather's house from being demolished, goes looking for some much-fabled hidden treasure in the land of the Minimoys, tiny people living in harmony with nature.
Countries: FranceLanguages: English
เรื่องย่อ Arthur and the Invisibles (2006) อาร์เธอร์ ทูตจิ๋วเจาะขุมทรัพย์มหัศจรรย์ ภาค 1เรื่องราวของเด็กชายตัวน้อยนาม “อาร์เธอร์” เขาชอบฟังเรื่องเล่านิทานจากยายของเขาก่อนนอนทุกคืน ฝันของเขาเต็มไปด้วยการพบเจอกับชนเผ่าอัฟริกัน และเรื่องราวที่มหัศจรรย์อย่างไม่น่าเชื่อจากหนังสือ เวทมนตร์เก่าแก่ของปู่ เขา ซึ่งได้หายสาบสูญไปอย่างลึกลับกว่า 4 ปีเมื่อ “อาร์เธอร์” เปิดอ่านหนังสือ เขาจึงได้เข้าใจถึงสิ่งที่ปู่ทิ้งไว้ให้ ซึ่งเกี่ยวกับสมบัติที่ซ่อนอยู่ในสวนหลังบ้าน ที่ประหลาดไปกว่านั้น นั่นคือ โลกที่มองเห็นได้ไม่ทั้งหมดนั้น กลับมีชั้นใต้ดินที่มีเหล่าบรรดาสัตว์ตัวเล็กๆ มากมายอาศัยอยู่ ซึ่งเขาเรียกมันว่า “มินิมอยส์” เมื่อ “อาร์เธอร์” มีอายุได้ 10 ขวบ เขาได้ตัดสินใจที่จะดำเนินรอยตามปู่ของเขา โดยการก้าวเข้าสู่โลกของเหล่าบรรดามินิมอยส์ เพื่อจะสำรวจและค้นหาอาณาจักร แต่ในนั้นกลับเจอกับเรื่องราวต่างๆ มากมาย และ “อาร์เธอร์” ก็กลับกลายมีร่างกายที่เล็กหดจิ๋วลงจนมีขนาดเท่าบรรด าพวกมินิมอยส์อีกด้วย

Complete name : [MINI-HD]_Arthur.1.2006.720p.BDRip.AC3.x264.One2loadup.com.mkv
Format : Matroska
Format version : Version 4 / Version 2
File size : 2.23 GiB
Duration : 1 h 43 min
Overall bit rate : 3 072 kb/s
Movie name : [MINI-HD]_Arthur.1.2006.720p.BDRip.AC3.x264.One2loadup.com
Encoded date : UTC 2015-03-19 00:31:28
Writing application : mkvmerge v7.2.0 (‘On Every Street’) 64bit built on Sep 13 2014 15:52:10
Writing library : libebml v1.3.0 + libmatroska v1.4.1
Cover : Yes
Attachments : cover_land.png / cover.png

Video
ID : 1
Format : AVC
Format/Info : Advanced Video Codec
Format profile : [email protected]
Format settings : CABAC / 6 Ref Frames
Format settings, CABAC : Yes
Format settings, ReFrames : 6 frames
Codec ID : V_MPEG4/ISO/AVC
Duration : 1 h 43 min
Bit rate : 2 222 kb/s
Width : 1 280 pixels
Height : 544 pixels
Display aspect ratio : 2.35:1
Frame rate mode : Constant
Frame rate : 23.976 (24000/1001) FPS
Color space : YUV
Chroma subsampling : 4:2:0
Bit depth : 8 bits
Scan type : Progressive
Bits/(Pixel*Frame) : 0.133
Stream size : 1.58 GiB (71%)
Title : [MINI-HD]_Arthur.1.2006.720p.BDRip.AC3.x264.One2loadup.com
Writing library : x264 core 112
Encoding settings : cabac=1 / ref=6 / deblock=1:0:0 / analyse=0x1:0x111 / me=hex / subme=7 / psy=1 / psy_rd=1.00:0.00 / mixed_ref=0 / me_range=16 / chroma_me=1 / trellis=1 / 8x8dct=0 / cqm=0 / deadzone=21,11 / fast_pskip=1 / chroma_qp_offset=-2 / threads=9 / sliced_threads=0 / nr=0 / decimate=1 / interlaced=0 / constrained_intra=0 / bframes=5 / b_pyramid=2 / b_adapt=2 / b_bias=0 / direct=1 / weightb=0 / open_gop=0 / weightp=2 / keyint=240 / keyint_min=23 / scenecut=40 / intra_refresh=0 / rc_lookahead=40 / rc=2pass / mbtree=1 / bitrate=2222 / ratetol=1.0 / qcomp=0.60 / qpmin=3 / qpmax=51 / qpstep=4 / cplxblur=20.0 / qblur=0.5 / ip_ratio=1.40 / aq=1:1.00
Language : English
Default : Yes
Forced : No
Color range : Limited
Color primaries : BT.709
Transfer characteristics : BT.709
Matrix coefficients : BT.709

Audio #1
ID : 2
Format : AC-3
Format/Info : Audio Coding 3
Codec ID : A_AC3
Duration : 1 h 43 min
Bit rate mode : Constant
Bit rate : 448 kb/s
Channel(s) : 6 channels
Channel positions : Front: L C R, Side: L R, LFE
Sampling rate : 48.0 kHz
Frame rate : 31.250 FPS (1536 SPF)
Bit depth : 16 bits
Compression mode : Lossy
Stream size : 332 MiB (15%)
Title : AC3 FIXED DVD MASTER
Language : Thai
Service kind : Complete Main
Default : Yes
Forced : Yes

Audio #2
ID : 3
Format : AC-3
Format/Info : Audio Coding 3
Codec ID : A_AC3
Duration : 1 h 43 min
Bit rate mode : Constant
Bit rate : 384 kb/s
Channel(s) : 6 channels
Channel positions : Front: L C R, Side: L R, LFE
Sampling rate : 48.0 kHz
Frame rate : 31.250 FPS (1536 SPF)
Bit depth : 16 bits
Compression mode : Lossy
Stream size : 285 MiB (12%)
Title : AC3
Language : English
Service kind : Complete Main
Default : No
Forced : No

Text #1
ID : 4
Format : VobSub
Muxing mode : zlib
Codec ID : S_VOBSUB
Codec ID/Info : Picture based subtitle format used on DVDs
Title : 1080P TSA
Language : Thai
Default : Yes
Forced : Yes

Text #2
ID : 5
Format : VobSub
Muxing mode : zlib
Codec ID : S_VOBSUB
Codec ID/Info : Picture based subtitle format used on DVDs
Title : 1080P AS
Language : Thai
Default : No
Forced : No

Text #3
ID : 6
Format : VobSub
Muxing mode : zlib
Codec ID : S_VOBSUB
Codec ID/Info : Picture based subtitle format used on DVDs
Title : DVD MASTER
Language : Thai
Default : No
Forced : No

Text #4
ID : 7
Format : UTF-8
Codec ID : S_TEXT/UTF8
Codec ID/Info : UTF-8 Plain Text
Title : SRT OCR
Language : Thai
Default : No
Forced : No

Text #5
ID : 8
Format : UTF-8
Codec ID : S_TEXT/UTF8
Codec ID/Info : UTF-8 Plain Text
Title : SRT
Language : English
Default : No
Forced : No

Text #6
ID : 9
Format : PGS
Muxing mode : zlib
Codec ID : S_HDMV/PGS
Codec ID/Info : Picture based subtitle format used on BDs/HD-DVDs
Title : TSA
Language : Thai
Default : No
Forced : No

Text #7
ID : 10
Format : PGS
Muxing mode : zlib
Codec ID : S_HDMV/PGS
Codec ID/Info : Picture based subtitle format used on BDs/HD-DVDs
Title : AS
Language : Thai
Default : No
Forced : No

DOWNLOAD


PART01 |||| PART02 |||| PART03

PART01 |||| PART02 |||| PART03

PART01 |||| PART02 |||| PART03

PART01 |||| PART02 |||| PART03


2 Comments
  1. Beer says

    ได้หนังให้หลานดูพอดี ขอบคุณครับ

    1. Admin
      Admin says

      ยินดี้ ยินดีฮ๊ะ


แจ้งหนังเสีย หรือโหลดไม่ได้ ทั้งลิ้งฟรีและ vip สามารถกดที่รูปด้านบนนี้ได้เลย

: Disable Comments
%d bloggers like this: