[เกาหลี] The Negotiation (2018) [พากย์เกาหลี DTS] [Soundtrack บรรยายไทย + อังกฤษ] [เสียงเกาหลี + ซับไทย] [ONE2UP]

0

โหลดหนัง The Negotiation (2018)

The Negotiation (2018) 1h 54min | Action, Crime, Thriller | 19 September 2018 (South Korea) Summary: An ace crisis negotiator faces off against a cold-blooded hostage taker. Over the course of 21 hours, she attempts to crack his unusually calm demeanor and force him to reveal his motivations.
Countries: South KoreaLanguages: Korean, English

เรื่องย่อ The Negotiation (2018)

เมื่อใดที่ผู้ก่อการร้ายมีข้อเรียกร้องย่อมหมายถึงการกดดันต่อรองด้วยชีวิตตัวประกันผู้บริสุทธิ์งานเดิมพันชีวิตนี้จึงมีเพียง Negotiator (นักเจรจาต่อรอง) มืออาชีพเท่านั้น ที่จะรับมือกับสถานการณ์อันอ่อนไหวและจำกัดเวลา ซนเยจิน กับบทบาท negotiator ที่น่าจับตามองว่าเธอจะรับมือกับวายร้ายอย่างไร เบื้องหลังการก่อการของเขาคืออะไรและที่น่าติดตามยิ่งกว่า เมื่อวายร้ายเลือดเย็นคนนั้น คือ ฮยอนบินที่พลิกบทเกินคาด เป็นตัวร้ายครั้งแรกในชีวิตการแสดง!!!

The Negotiation เป็นภาพยนตร์ที่ทำรายได้ดีอีกเรื่องหนึ่งของปี 2018 ที่ผ่านมา โดยมีนักแสดงนำแม่เหล็กที่ดึงดูดผู้ชม อย่าง ฮยอนบินและ ซนเยจิน ซึ่งผลงานนี้เป็นการมาร่วมงานกันเป็นครั้งแรกของพวกเขาทั้งสองคน ทั้งๆที่ต่างก็โลดแล่นในวงการมายาวนานร่วม 20 ปีกันทั้งคู่ซึ่งภาพยนตร์เรื่องนี้ได้ทำออกมาดีสมการรอคอยของผู้ชม

Complete name : [MINI Super-HQ]_The.Negotiation.2018.1080p.BrRip.DTS.x264.Subthai.One2loadup.com.mkv
Format : Matroska
Format version : Version 4
File size : 3.94 GiB
Duration : 1 h 52 min
Overall bit rate : 4 999 kb/s
Movie name : [MINI Super-HQ]_The.Negotiation.2018.1080p.BrRip.DTS.x264.Subthai.One2loadup.com
Encoded date : UTC 2010-02-22 21:41:31
Writing application : mkvmerge v5.9.0 (‘On The Loose’) built on Dec 9 2012 15:37:01
Writing library : libebml v1.3.0 + libmatroska v1.4.0

Video
ID : 1
Format : AVC
Format/Info : Advanced Video Codec
Format profile : [email protected]
Format settings : CABAC / 4 Ref Frames
Format settings, CABAC : Yes
Format settings, ReFrames : 4 frames
Codec ID : V_MPEG4/ISO/AVC
Duration : 1 h 52 min
Bit rate : 4 004 kb/s
Width : 1 920 pixels
Height : 808 pixels
Display aspect ratio : 2.40:1
Frame rate mode : Constant
Frame rate : 24.000 FPS
Color space : YUV
Chroma subsampling : 4:2:0
Bit depth : 8 bits
Scan type : Progressive
Bits/(Pixel*Frame) : 0.108
Stream size : 3.26 GiB (83%)
Title : [MINI Super-HQ]_The.Negotiation.2018.1080p.BrRip.DTS.x264.Subthai.One2loadup.com
Writing library : x264 core 130 r2273 b3065e6
Encoding settings : cabac=1 / ref=3 / deblock=1:0:0 / analyse=0x3:0x113 / me=umh / subme=11 / psy=1 / psy_rd=1.00:0.00 / mixed_ref=1 / me_range=48 / chroma_me=1 / trellis=2 / 8x8dct=1 / cqm=0 / deadzone=21,11 / fast_pskip=1 / chroma_qp_offset=-2 / threads=10 / lookahead_threads=1 / sliced_threads=0 / nr=0 / decimate=1 / interlaced=0 / bluray_compat=0 / constrained_intra=0 / bframes=3 / b_pyramid=2 / b_adapt=1 / b_bias=0 / direct=1 / weightb=1 / open_gop=0 / weightp=2 / keyint=240 / keyint_min=24 / scenecut=40 / intra_refresh=0 / rc_lookahead=40 / rc=2pass / mbtree=1 / bitrate=4004 / ratetol=1.0 / qcomp=0.60 / qpmin=0 / qpmax=69 / qpstep=4 / cplxblur=20.0 / qblur=0.5 / ip_ratio=1.40 / aq=1:1.00
Language : Korean
Default : Yes
Forced : No
Color range : Limited
Color primaries : BT.709
Transfer characteristics : BT.709
Matrix coefficients : BT.709

Audio
ID : 2
Format : DTS
Format/Info : Digital Theater Systems
Codec ID : A_DTS
Duration : 1 h 52 min
Bit rate mode : Constant
Bit rate : 768 kb/s
Channel(s) : 6 channels
Channel layout : C L R Ls Rs LFE
Sampling rate : 48.0 kHz
Frame rate : 93.750 FPS (512 SPF)
Bit depth : 16 bits
Compression mode : Lossy
Stream size : 620 MiB (15%)
Default : Yes
Forced : No

Text #1
ID : 3
Format : VobSub
Codec ID : S_VOBSUB
Codec ID/Info : Picture based subtitle format used on DVDs
Title : Thai 480p From DVD Master
Language : Thai
Default : No
Forced : No

Text #2
ID : 4
Format : VobSub
Codec ID : S_VOBSUB
Codec ID/Info : Picture based subtitle format used on DVDs
Title : Thai 720p
Language : Thai
Default : No
Forced : No

Text #3
ID : 5
Format : VobSub
Codec ID : S_VOBSUB
Codec ID/Info : Picture based subtitle format used on DVDs
Title : Thai 1080p
Language : Thai
Default : Yes
Forced : Yes

Text #4
ID : 6
Format : VobSub
Codec ID : S_VOBSUB
Codec ID/Info : Picture based subtitle format used on DVDs
Title : Thai 1080p Yellow
Language : Thai
Default : No
Forced : No

Text #5
ID : 7
Format : VobSub
Codec ID : S_VOBSUB
Codec ID/Info : Picture based subtitle format used on DVDs
Title : Thai 1080p Out
Language : Thai
Default : No
Forced : No

Text #6
ID : 8
Format : VobSub
Codec ID : S_VOBSUB
Codec ID/Info : Picture based subtitle format used on DVDs
Title : Thai 1080p BIG
Language : Thai
Default : No
Forced : No

Text #7
ID : 9
Format : VobSub
Codec ID : S_VOBSUB
Codec ID/Info : Picture based subtitle format used on DVDs
Title : Thai 1080p Out [BIG]
Language : Thai
Default : No
Forced : No

Text #8
ID : 10
Format : PGS
Codec ID : S_HDMV/PGS
Codec ID/Info : Picture based subtitle format used on BDs/HD-DVDs
Title : Thai PGS
Language : Thai
Default : No
Forced : No

Text #9
ID : 11
Format : PGS
Codec ID : S_HDMV/PGS
Codec ID/Info : Picture based subtitle format used on BDs/HD-DVDs
Title : Thai PGS Yellow
Language : Thai
Default : No
Forced : No

Text #10
ID : 12
Format : PGS
Codec ID : S_HDMV/PGS
Codec ID/Info : Picture based subtitle format used on BDs/HD-DVDs
Title : Thai PGS Out
Language : Thai
Default : No
Forced : No

Text #11
ID : 13
Format : PGS
Codec ID : S_HDMV/PGS
Codec ID/Info : Picture based subtitle format used on BDs/HD-DVDs
Title : English
Language : English
Default : No
Forced : No

Menu
00:00:00.000 : en:Chapter 1
00:08:17.542 : en:Chapter 2
00:18:17.458 : en:Chapter 3
00:27:59.250 : en:Chapter 4
00:37:18.333 : en:Chapter 5
00:47:18.250 : en:Chapter 6
00:56:45.833 : en:Chapter 7
01:03:30.333 : en:Chapter 8
01:15:11.667 : en:Chapter 9
01:23:53.750 : en:Chapter 10
01:34:39.292 : en:Chapter 11
01:45:40.667 : en:Chapter 12

DOWNLOAD


PART01 |||| PART02 |||| PART03 |||| PART04

PART01 |||| PART02 |||| PART03 |||| PART04

PART01 |||| PART02 |||| PART03 |||| PART04

PART01 |||| PART02 |||| PART03 |||| PART04



Disable Comments
%d bloggers like this: