[เกาหลี] The Divine Fury (2019) มือนรกพระเจ้าคลั่ง [1080p] [พากย์ไทย 5.1] [บรรยายเกาหลีฝัง] [เสียงไทยมาสเตอร์] [PANDAFILE]

0

โหลดหนัง The Divine Fury (2019) มือนรกพระเจ้าคลั่ง 

Saja (2019) 2h 9min | Action, Horror, Thriller | 31 July 2019 (South Korea) Summary: An MMA fighter helps an exorcist fight evil.
Countries: South KoreaLanguages: Korean, Latin

เรื่องย่อ The Divine Fury (2019) มือนรกพระเจ้าคลั่ง

เตรียมพบกับผลงานล่าสุดของ พัค ซอจุน นักแสดงชายระดับท็อปสตาร์อีกคนหนึ่งของเกาหลีใต้ในขณะนี้ที่กลับมาพร้อมกับภาพยนตร์เรื่องใหม่ The Divine Fury กับบทบาทของนักสู้ผู้ศรัทธาในตัวเองร่วมด้วยดาวรุ่งดาวใหม่ อู โดฮวาน และนักแสดงมากฝีมือ อัน ซองกิ ที่คอหนังคงคุ้นหน้าคุ้นตากันเป็นอย่างดี

The Divine Fury ว่าด้วยเรื่องของ “ยงฮู” (รับบทโดย พัค ซอจุน) สุดยอดนักสู้ของโลกผู้ไร้ศรัทธาในเทพองค์ใดนอกจากตัวเองจู่ๆ เขากลับมีแผลเป็นที่ฝ่ามือเหมือนพระเยซู เขาจึงไปพบบาทหลวงเพื่อหวังจะรักษาแผลเป็นแต่กลายเป็นว่าตัวเขาเองที่เป็นฝ่ายช่วย “บาทหลวงอัน” (รับบทโดย อัน ซึงกิ) ที่เกือบเอาชีวิตไม่รอดจากการไล่ผีแทนยงฮู เริ่มเรียนรู้พลังพิเศษที่เขาได้รับจากแผลเป็นบนฝ่ามือนี้ เพื่อช่วยคนบริสุทธิ์ที่ถูกวิญญาณร้ายเล่นงานแต่สิ่งที่เป็นอุปสรรคชิ้นใหญ่ของเขาคือ “จอมมารจีชิน” (รับบทโดย จีชิน) ที่หวังครอบงำจิตใจมนุษย์ด้วยความชั่วร้ายไปตลอดกาล!!!

Complete name : The.Divine.Fury.2019.1080p.WEB-DL.AC3.x264.One2loadup.com.mkv
Format : Matroska
Format version : Version 4
File size : 5.62 GiB
Duration : 2 h 8 min
Overall bit rate : 6 243 kb/s
Movie name : The.Divine.Fury.2019.1080p.WEB-DL.AC3.x264.One2loadup.com
Encoded date : UTC 2010-02-22 21:41:31
Writing application : mkvmerge v5.9.0 (‘On The Loose’) built on Dec 9 2012 15:37:01
Writing library : libebml v1.3.0 + libmatroska v1.4.0

Video
ID : 1
Format : AVC
Format/Info : Advanced Video Codec
Format profile : [email protected]
Format settings : CABAC / 3 Ref Frames
Format settings, CABAC : Yes
Format settings, ReFrames : 3 frames
Format settings, GOP : M=1, N=30
Codec ID : V_MPEG4/ISO/AVC
Duration : 2 h 8 min
Bit rate : 5 872 kb/s
Width : 1 920 pixels
Height : 1 080 pixels
Display aspect ratio : 16:9
Frame rate mode : Constant
Frame rate : 30.000 FPS
Color space : YUV
Chroma subsampling : 4:2:0
Bit depth : 8 bits
Scan type : Progressive
Bits/(Pixel*Frame) : 0.094
Stream size : 5.11 GiB (91%)
Title : The.Divine.Fury.2019.1080p.WEB-DL.AC3.x264.One2loadup.com
Writing library : x264 core 157 r2935 545de2f
Encoding settings : cabac=1 / ref=3 / deblock=1:0:0 / analyse=0x3:0x113 / me=hex / subme=7 / psy=1 / psy_rd=1.00:0.00 / mixed_ref=1 / me_range=16 / chroma_me=1 / trellis=1 / 8x8dct=1 / cqm=0 / deadzone=21,11 / fast_pskip=1 / chroma_qp_offset=-2 / threads=34 / lookahead_threads=5 / sliced_threads=0 / nr=0 / decimate=1 / interlaced=0 / bluray_compat=0 / constrained_intra=0 / bframes=0 / weightp=2 / keyint=30 / keyint_min=16 / scenecut=0 / intra_refresh=0 / rc_lookahead=30 / rc=abr / mbtree=1 / bitrate=5872 / ratetol=1.0 / qcomp=0.60 / qpmin=0 / qpmax=69 / qpstep=4 / vbv_maxrate=5900 / vbv_bufsize=5872 / nal_hrd=none / filler=0 / ip_ratio=1.40 / aq=1:1.00
Language : Korean
Default : Yes
Forced : No

Audio
ID : 2
Format : AC-3
Format/Info : Audio Coding 3
Commercial name : Dolby Digital
Codec ID : A_AC3
Duration : 2 h 8 min
Bit rate mode : Constant
Bit rate : 448 kb/s
Channel(s) : 6 channels
Channel layout : L R C LFE Ls Rs
Sampling rate : 48.0 kHz
Frame rate : 31.250 FPS (1536 SPF)
Bit depth : 16 bits
Compression mode : Lossy
Delay relative to video : 8 ms
Stream size : 413 MiB (7%)
Title : Thai DVD Master
Language : Thai
Service kind : Complete Main
Default : Yes
Forced : Yes

DOWNLOAD


PART01 |||| PART02 |||| PART03 |||| PART04 |||| PART05 |||| PART06

PART01 |||| PART02 |||| PART03 |||| PART04 |||| PART05 |||| PART06

PART01 |||| PART02 |||| PART03 |||| PART04 |||| PART05 |||| PART06

PART01 |||| PART02 |||| PART03 |||| PART04 |||| PART05 |||| PART06


Leave A Reply

Your email address will not be published.

%d bloggers like this: