เว็บโหลดหนัง HD MINI-HD SUPER-HQ Full-HD 1080p One2up VIP Master Zoom ซูม หนังใหม่ ออนไลน์ มาสเตอร์ ไทย จีน ฝรั่ง การ์ตูน

[เกาหลี] Forgotten (2017) ความทรงจำพิศวง [1080p] [พากย์เกาหลี 5.1] [Soundtrack บรรยายไทย] [Rip] [ซับไทย] [ONE2UP]

0

โหลดหนัง  Forgotten (2017) ความทรงจำพิศวง

เรื่องย่อ Forgotten (2017) ความทรงจำพิศวง

เมื่อพี่ชายที่ถูกลักพาตัวหวนกลับมาปรากฎตัว แต่เปลี่ยนไปเป็นคนละคนและไม่เหลือความทรงจำ 19 วันก่อนเลย จินซอกจึงมุ่งมั่นค้นหาความจริง เบื้องหลังการลักพาตัวปริศนาครั้งนี้

Complete name : Forgotten.1080p.AC-3.NF.SUBTH.One2loadup.com.mkv
Format : Matroska
Format version : Version 4 / Version 2
File size : 3.58 GiB
Duration : 1 h 48 min
Overall bit rate : 4 715 kb/s
Encoded date : UTC 2018-02-21 12:12:16
Writing application : mkvmerge v20.0.0 (‘I Am The Sun’) 64-bit
Writing library : libebml v1.3.5 + libmatroska v1.4.8

Video
ID : 2
Format : AVC
Format/Info : Advanced Video Codec
Format profile : [email protected]
Format settings, CABAC : Yes
Format settings, RefFrames : 2 frames
Format settings, GOP : M=1, N=12
Codec ID : V_MPEG4/ISO/AVC
Duration : 1 h 48 min
Bit rate : 4 515 kb/s
Width : 1 920 pixels
Height : 1 080 pixels
Display aspect ratio : 16:9
Frame rate mode : Constant
Frame rate : 23.976 (23976/1000) FPS
Color space : YUV
Chroma subsampling : 4:2:0
Bit depth : 8 bits
Scan type : Progressive
Bits/(Pixel*Frame) : 0.091
Stream size : 3.43 GiB (96%)
Default : Yes
Forced : No

Audio
ID : 1
Format : E-AC-3
Format/Info : Enhanced Audio Coding 3
Format settings, Endianness : Big
Codec ID : A_EAC3
Duration : 1 h 48 min
Bit rate mode : Constant
Bit rate : 192 kb/s
Channel(s) : 6 channels
Channel positions : Front: L C R, Side: L R, LFE
Sampling rate : 48.0 kHz
Frame rate : 187.500 FPS (256 SPF)
Compression mode : Lossy
Delay relative to video : -42 ms
Stream size : 149 MiB (4%)
Service kind : Complete Main
Default : Yes
Forced : No

Text
ID : 3
Format : PGS
Muxing mode : zlib
Codec ID : S_HDMV/PGS
Codec ID/Info : Picture based subtitle format used on BDs/HD-DVDs
Duration : 1 h 47 min
Bit rate : 14.4 kb/s
Count of elements : 2044
Stream size : 11.1 MiB (0%)
Default : Yes
Forced : No

 


PART01 |||| PART02 |||| PART03 |||| PART04

PART01 |||| PART02 |||| PART03 |||| PART04

PART01 |||| PART02 |||| PART03 |||| PART04

PART01 |||| PART02 |||| PART03 |||| PART04


Leave A Reply

Your email address will not be published.

%d bloggers like this: