[อินเดีย] 3 idiots (2009) [1080p] [พากย์อินเดีย 5.1] [Soundtrack บรรยายไทย] [เสียงอินเดีย + ซับไทย] [OPENLOAD]

0

3 idiots (2009)

โหลดหนัง 3 idiots (2009) 

3 Idiots (2009) 2h 50min | Comedy, Drama | 24 December 2009 (Netherlands) Summary: Two friends are searching for their long lost companion. They revisit their college days and recall the memories of their friend who inspired them to think differently, even as the rest of the world called them "idiots".
Countries: IndiaLanguages: Hindi, English

เรื่องย่อ 3 idiots (2009)

3 idiots เป็นเรื่องราวชายหนุ่มอินเดียสามคนที่ครั้งหนึ่งเคยส ัญญาว่าอีก10ปี จะมาเจอกันเพื่อดูว่าใครประสบความสำเร็จในชีวิตมากกว ่ากัน ราจูและฟารานจึงรวมตัวกันและออกตามหารานโช จากนั้นย้อนไปในสมัยที่พวกเขายังเรียนวิศวะในมหาวิทย าลัยแนวหน้าของอินเดีย ราจูและฟารานมาจากครอบครัวที่มีฐานะยากจนส่วนรานโชมา จากครอบครัวที่ร่ำรวย ฟารานใฝ่ฝันจะเป็นช่างภาพแต่ต้องเรียนวิศวะตามความต้ องการของพ่อ ส่วนราจูเข้ามาเรียนวิศวะเพื่อที่จะยกระดับฐานะทางบ้ านของตนที่ยากจนขนาดอดมื้อกินมื้อ พ่อป่วยหนัก และน้องสาวไม่ได้แต่งงานเพราะไม่มีเงินจ่ายค่าสินสอด รานโชเป็นตัวละครเอกที่มาจากครอบครัวที่ร่ำรวย เขาเป็นคนฉลาด มีความใฝ่รู้และมีความคิดสร้างสรรค์ อีกตัวละครที่ไม่กล่าวถึงไม่ได้คือ ชาเตอ เป็นตัวแทนของนักเรียนที่มีความรู้แค่ในตำรา และคอยแข่งขันกันผู้อื่นตลอดเวลาเพื่อให้ตนเองเป็นที ่หนึ่ง เขาจึงได้รับความกดดันเสมอ เช่น ตอนที่ชาเตอได้เป็นตัวแทนกล่าวสุนทรพจน์ บทพูดของเขาไม่สมบูรณ์ ด้วยความขาดไหวพริบและความรู้ภาษะฮินดีจึงสร้างเสียง หัวเราะให้แก่ผู้ชม เมื่อตัดมาถึงปัจจุบันรานโชและราจูกำลังจะไปตามหาราน โชตามที่อยู่ล่าสุดพร้อมด้วยชาเตอ ซึ่งในขณะนั้นเป็นนักธุรกิจที่ประสบความสำเร็จมาก เขากำลังตามหานักวิทยาศาสตร์ที่มีชื่อเสียงคนหนึ่งชื ่อPhunsukh Wangdu เพื่อเซ็นสัญญา เมื่อไปถึงบ้านรานโชกลับพบว่ารานโชที่อยู่ที่บ้านหลั งนั้นไม่ใช่คนเดียวกับที่พวกเขารู้จักมาโดยตลอด จึงได้รู้ความจริงว่ารานโชที่พวกเขารู้จักที่จริงแล้ วเป็นคนงานที่มีความใฝ่รู้ใฝ่เรียน ในขณะที่รานโชตัวจริงขี้เกียจและไม่ชอบเรียนหนังสือ เขาจึงตัดสินใจให้รานโชตัวปลอมเรียนหนังสือแทนเขา เมื่อทั้งสามเดินทางมาพบ Phunsukh Wangdu กลับพบว่าคือคนเดียวกันกับรานโชเพื่อนของเขานั่นเอง เรื่องนี้ได้สร้างความตกใจให้กับ ชานเตอ มาก เพราะในที่สุดรานโช ก็ประสบความสำเร็จกว่าเขา

Complete name : 3 Idiots.2009.1080p.Subthai.BRRiP.x264.One2loadup.com.mkv
Format : Matroska
Format version : Version 1
File size : 2.78 GiB
Duration : 2 h 51 min
Overall bit rate : 2 323 kb/s
Encoded date : UTC 2014-05-10 14:56:49
Writing application : mkvmerge v2.4.0 (‘Fumbling Towards Ecstasy’) built on Oct 11 2008 20:13:15
Writing library : libebml v0.7.7 + libmatroska v0.8.1

Video
ID : 1
Format : AVC
Format/Info : Advanced Video Codec
Format profile : [email protected]
Format settings : CABAC / 5 Ref Frames
Format settings, CABAC : Yes
Format settings, ReFrames : 5 frames
Codec ID : V_MPEG4/ISO/AVC
Duration : 2 h 51 min
Bit rate : 1 861 kb/s
Width : 1 920 pixels
Height : 816 pixels
Display aspect ratio : 2.35:1
Frame rate mode : Constant
Frame rate : 24.000 FPS
Color space : YUV
Chroma subsampling : 4:2:0
Bit depth : 8 bits
Scan type : Progressive
Bits/(Pixel*Frame) : 0.049
Stream size : 2.19 GiB (79%)
Writing library : x264 core 120 r2164 da19765
Encoding settings : cabac=1 / ref=5 / deblock=1:-3:-3 / analyse=0x3:0x133 / me=umh / subme=9 / psy=1 / psy_rd=1.00:0.00 / mixed_ref=1 / me_range=32 / chroma_me=1 / trellis=2 / 8x8dct=1 / cqm=0 / deadzone=21,11 / fast_pskip=1 / chroma_qp_offset=-4 / threads=6 / sliced_threads=0 / nr=0 / decimate=1 / interlaced=0 / bluray_compat=0 / constrained_intra=0 / bframes=3 / b_pyramid=2 / b_adapt=2 / b_bias=0 / direct=1 / weightb=1 / open_gop=0 / weightp=2 / keyint=240 / keyint_min=22 / scenecut=40 / intra_refresh=0 / rc_lookahead=42 / rc=2pass / mbtree=1 / bitrate=1861 / ratetol=1.0 / qcomp=0.60 / qpmin=10 / qpmax=51 / qpstep=4 / cplxblur=20.0 / qblur=0.5 / ip_ratio=1.40 / aq=1:1.00
Default : Yes
Forced : No

Audio
ID : 2
Format : AC-3
Format/Info : Audio Coding 3
Commercial name : Dolby Digital
Codec ID : A_AC3
Duration : 2 h 51 min
Bit rate mode : Constant
Bit rate : 448 kb/s
Channel(s) : 6 channels
Channel layout : L R C LFE Ls Rs
Sampling rate : 48.0 kHz
Frame rate : 31.250 FPS (1536 SPF)
Bit depth : 16 bits
Compression mode : Lossy
Stream size : 548 MiB (19%)
Title : ENGLISH AC3
Service kind : Complete Main
Default : Yes
Forced : No

Text #1
ID : 3
Format : UTF-8
Codec ID : S_TEXT/UTF8
Codec ID/Info : UTF-8 Plain Text
Title : ENGLISH
Default : Yes
Forced : No

Text #2
ID : 4
Format : VobSub
Muxing mode : zlib
Codec ID : S_VOBSUB
Codec ID/Info : Picture based subtitle format used on DVDs
Title : THAI
Language : Thai
Default : No
Forced : No

Text #3
ID : 5
Format : VobSub
Muxing mode : zlib
Codec ID : S_VOBSUB
Codec ID/Info : Picture based subtitle format used on DVDs
Title : THAI
Language : Thai
Default : No
Forced : No

DOWNLOAD


PART01 |||| PART02 |||| PART03

PART01 |||| PART02 |||| PART03

PART01 |||| PART02 |||| PART03

PART01 |||| PART02 |||| PART03


Leave A Reply

Your email address will not be published.

%d bloggers like this: