โหลดหนัง HD MINI-HD SUPER-HQ Full-HD 1080p VIP Master Zoom ซูม หนังใหม่ ออนไลน์ มาสเตอร์ ไทย จีน ฝรั่ง การ์ตูน

[ฝรั่ง] The Taking Of Deborah Logan (2014) หลอนจิตปริศนา [1080p] [พากย์ไทย 5.1 + เสียงอังกฤษ 5.1] [บรรยายไทย + อังกฤษ] [เสียงไทย + ซับไทย] [OPENLOAD]

The Taking Of Deborah Logan (2014) หลอนจิตปริศนา

โหลดหนัง The Taking Of Deborah Logan (2014) หลอนจิตปริศนา

เรื่องย่อ The Taking Of Deborah Logan (2014) หลอนจิตปริศนา

กลุ่มนักศึกษาปริญญาเอกที่กำลังทำดุษฎีนิพนธ์เกี่ยวกับเรื่องการศึกษาโรคอัลไซเมอร์ในผู้สูงอายุ จนมาพบเข้ากับกลุ่มตัวอย่างครอบครัวของหญิงชรา คุณยาย Deborah Logan (รับบทโดย Jill Larson) ที่มีปัญหาเกี่ยวกับอาการผิดปกติทางจิตและทางกายด้วย โรคอัลไซเมอร์อย่างรุนแรงนานหลายปี เล่าลือกันว่าทุกค่ำคืนตัวของ Deborah Logan จะมีพฤติกรรมแปรเปลี่ยนไปจากปกติแบบสุดขั้ว จากกลางวันเธอจะเป็นเพียงหญิงชราวัยไม้ใกล้ฝั่งที่อยู่ในภาพซึมเศร้า เคลื่อนไหวเชื่องช้า…จวบจนตกกลางคืนเธอจึงเริ่มมีเรี ่ยวแรง ขยับแขนขนราวคนบ้าคลั่ง มีพละกำลังวิ่งได้รวดเร็วยิ่งกว่าคนหนุ่มสาว (อาการคล้ายคนถูกผีเข้า) จนบางครั้งผู้คนใกล้ๆบ้านหลังนี้เริ่มกลัว หวาดระแวงหญิงชรา และสับสนกับพฤติกรรมดังกล่าวว่ามันเกิดจากสาเหตุอะไร กันแน่…มันเกิดจากการกระทำของมนุษย์ต่างดาว สภาพร่างกายที่แปรเปลี่ยนไปตามอายุ-สิ่งลี้ลับภูตผีปีศาจร้าย หรืออะไรกันแน่ ( ? ) ประจวบกับกลุ่มนักศึกษาจากต่างถิ่นเริ่มสนใจเคสตัวอย่างนี้เข้าอย่างจังเบอร์ เพราะมันเป็นพฤติกรรมที่แปลกแยกมากๆ จึงพยายามติดต่อไปยัง Sarah Logan (รับบทโดย Anne Ramsay) เครือญาติใกล้ชิดของหญิงชราที่คอยดูแลปรนนิบัติรับใช้คุณยาย Deborah Logan ภายในบ้านหลังนั้นเอง เพื่อขออนุญาตติดตั้งกล้องวงจรปิดหลายสิบตัว ทั้งภายในและภายนอกตัวบ้าน สำหรับเฝ้าอาการและสังเกตพฤติกรรมของหญิงชราตลอด 24 ชั่วโมง !!!

Complete name : The.Taking.of.Deborah.Logan.2014.1080p.BluRay.x264.AC3.One2loadup.com.mkv
Format : Matroska
Format version : Version 4
File size : 2.16 GiB
Duration : 1 h 30 min
Overall bit rate : 3 425 kb/s
Encoded date : UTC 2018-12-21 06:13:53
Writing application : mkvmerge v25.0.0 (‘Prog Noir’) 64-bit
Writing library : libebml v1.3.6 + libmatroska v1.4.9

Video
ID : 1
Format : AVC
Format/Info : Advanced Video Codec
Format profile : [email protected]
Format settings : CABAC / 4 Ref Frames
Format settings, CABAC : Yes
Format settings, ReFrames : 4 frames
Codec ID : V_MPEG4/ISO/AVC
Duration : 1 h 30 min
Bit rate : 2 500 kb/s
Width : 1 920 pixels
Height : 1 040 pixels
Display aspect ratio : 1.85:1
Frame rate mode : Constant
Frame rate : 23.976 (23976/1000) FPS
Color space : YUV
Chroma subsampling : 4:2:0
Bit depth : 8 bits
Scan type : Progressive
Bits/(Pixel*Frame) : 0.052
Stream size : 1.57 GiB (73%)
Title : The.Taking.of.Deborah.Logan.2014.1080p.BluRay.x264.AC3.THM_Scarlett98
Writing library : x264 core 152 r2851M ba24899
Encoding settings : cabac=1 / ref=4 / deblock=1:-1:-1 / analyse=0x3:0x113 / me=umh / subme=9 / psy=1 / psy_rd=1.00:0.15 / mixed_ref=1 / me_range=24 / chroma_me=1 / trellis=2 / 8x8dct=1 / cqm=0 / deadzone=21,11 / fast_pskip=1 / chroma_qp_offset=-3 / threads=32 / lookahead_threads=4 / sliced_threads=0 / nr=0 / decimate=1 / interlaced=0 / bluray_compat=0 / constrained_intra=0 / bframes=3 / b_pyramid=2 / b_adapt=2 / b_bias=0 / direct=3 / weightb=1 / open_gop=0 / weightp=2 / keyint=250 / keyint_min=25 / scenecut=40 / intra_refresh=0 / rc_lookahead=50 / rc=2pass / mbtree=1 / bitrate=2500 / ratetol=1.0 / qcomp=0.60 / qpmin=0 / qpmax=69 / qpstep=4 / cplxblur=20.0 / qblur=0.5 / vbv_maxrate=31250 / vbv_bufsize=31250 / nal_hrd=none / filler=0 / ip_ratio=1.40 / aq=3:1.00
Default : Yes
Forced : No

Audio #1
ID : 2
Format : AC-3
Format/Info : Audio Coding 3
Commercial name : Dolby Digital
Codec ID : A_AC3
Duration : 1 h 30 min
Bit rate mode : Constant
Bit rate : 448 kb/s
Channel(s) : 6 channels
Channel layout : L R C LFE Ls Rs
Sampling rate : 48.0 kHz
Frame rate : 31.250 FPS (1536 SPF)
Bit depth : 16 bits
Compression mode : Lossy
Delay relative to video : 1 s 5 ms
Stream size : 289 MiB (13%)
Title : Thai From DVD Master
Language : Thai
Service kind : Complete Main
Default : Yes
Forced : No

Audio #2
ID : 3
Format : AC-3
Format/Info : Audio Coding 3
Commercial name : Dolby Digital
Codec ID : A_AC3
Duration : 1 h 30 min
Bit rate mode : Constant
Bit rate : 448 kb/s
Channel(s) : 6 channels
Channel layout : L R C LFE Ls Rs
Sampling rate : 48.0 kHz
Frame rate : 31.250 FPS (1536 SPF)
Bit depth : 16 bits
Compression mode : Lossy
Stream size : 289 MiB (13%)
Title : English 5.1
Language : English
Service kind : Complete Main
Default : No
Forced : No

Text #1
ID : 4
Format : VobSub
Muxing mode : zlib
Codec ID : S_VOBSUB
Codec ID/Info : Picture based subtitle format used on DVDs
Duration : 1 h 24 min
Bit rate : 12.4 kb/s
Count of elements : 3021
Stream size : 7.46 MiB (0%)
Title : Thai 1080p
Language : Thai
Default : Yes
Forced : No

Text #2
ID : 5
Format : PGS
Muxing mode : zlib
Codec ID : S_HDMV/PGS
Codec ID/Info : Picture based subtitle format used on BDs/HD-DVDs
Duration : 1 h 24 min
Bit rate : 43.7 kb/s
Count of elements : 6042
Stream size : 26.3 MiB (1%)
Title : Thai PGS
Language : Thai
Default : No
Forced : No

Text #3
ID : 6
Format : VobSub
Muxing mode : zlib
Codec ID : S_VOBSUB
Codec ID/Info : Picture based subtitle format used on DVDs
Duration : 1 h 24 min
Bit rate : 12.2 kb/s
Count of elements : 2941
Stream size : 7.35 MiB (0%)
Title : English
Language : English
Default : No
Forced : No

DOWNLOAD


PART01 |||| PART02 |||| PART03

PART01 |||| PART02 |||| PART03

PART01 |||| PART02 |||| PART03

PART01 |||| PART02 |||| PART03


Leave A Reply

Your email address will not be published.

%d bloggers like this: