[ฝรั่ง] The Spectacular Now (2013) ใครสักคนบนโลกใบนี้ [1080p] [พากย์อังกฤษ DTS] [Soundtrack บรรยายไทย] [เสียงอังกฤษ + ซับไทย] [OPENLOAD]

0

โหลดหนัง The Spectacular Now (2013) ใครสักคนบนโลกใบนี้

The Spectacular Now: Perfekt ist jetzt (2013) 1h 35min | Comedy, Drama, Romance | 13 September 2013 (USA) Summary: A hard-partying high school senior's philosophy on life changes when he meets the not-so-typical "nice girl."
Countries: USALanguages: English

เรื่องย่อ The Spectacular Now (2013) ใครสักคนบนโลกใบนี้

หนังรักโรแมนติกอีกเรื่องที่ได้รับการจับตามองมาก เพราะนำแสดงโดยสาวน้อย Shailene Woodley ซึ่งก็กำลังมีผลงานอยู่ D Divergentภาพยนต์เรื่องนี้เกี่ยวกับ หนุ่มน้อย นักปาร์ตี้ ตัวยง ที่ชอบความสนุกสนานของงานเลี้ยง ปาร์ตี้ แต่ชีวิตของเขาเปลี่ยนไปเมื่อมาพบกับสาวน้อยแสนดี ที่มีแบบฉบับชีวิต ชัตเตอร์(ไมลส์ เทลเลอร์) อาศัยอยู่กับปัจจุบัน เขาเป็นรุ่นพี่ที่โรงเรียน ทั้งมีเสน่ห์และเป็นตัวของตัวเอง แถมยังเป็นสีสันของงานเลี้ยงฉลองอีก ชัตเตอร์ชอบงานที่ร้านขายเสื้อผ้าผู้ชาย และไม่มีแผนการหรือเป้าหมายใดๆในอนาคต ปัจจุบันเป็นสิ่งที่ดีสำหรับเขา เขาเป็นนักดื่มตัวยง จนกระทั่งถูกแฟนสาวทิ้ง ชัตเตอร์เมาไม่ได้สติ และรุ้สึกตัวตื่นขึ้นมาในสนามหญ้าแห่งหนึ่ง มีเอมมี่ (เชลลีน วูดลีย์) กำลังก้มมองเขาอยู่เอมมี่แตกต่างจากเขา เธอเป็นเด็กสาวแสนดีที่ตั้งใจเรียนชอบอ่านหนังสือวิทยาศาสตร์ แถมไม่เคยมีแฟนมาก่อน ขณะที่เอมมี่เผ้าฝันถึงอนาคต ชัตเตอร์ก็ลุ่มหลงไปกับความน่าตื่นเต้นในช่วงเวลาปัจจุบัน สองคนที่แตกต่างกันถูกดึงดูดเข้าหากัน และใกล้ชิดกันในที่สุด แล้วเรื่องราวของพวกเขาจะเป็นไปในทิศทางใด โปรดติดตาม

Complete name : The.Spectacular.Now.2013.1080p.BluRay.DTS.x264.Subthai.One2loadup.com.mkv
Format : Matroska
Format version : Version 4
File size : 7.64 GiB
Duration : 1 h 35 min
Overall bit rate : 11.5 Mb/s
Movie name : The.Spectacular.Now.2013.1080p.BluRay.DTS.x264.Subthai.One2loadup.com
Encoded date : UTC 2016-04-24 22:26:40
Writing application : mkvmerge v8.2.0 (‘World of Adventure’) 64bit
Writing library : libebml v1.3.1 + libmatroska v1.4.2 / Lavf52.84.0

Video
ID : 1
Format : AVC
Format/Info : Advanced Video Codec
Format profile : [email protected]
Format settings : CABAC / 5 Ref Frames
Format settings, CABAC : Yes
Format settings, ReFrames : 5 frames
Codec ID : V_MPEG4/ISO/AVC
Duration : 1 h 35 min
Bit rate : 10 000 kb/s
Width : 1 920 pixels
Height : 800 pixels
Display aspect ratio : 2.40:1
Frame rate mode : Constant
Frame rate : 23.976 (24000/1001) FPS
Color space : YUV
Chroma subsampling : 4:2:0
Bit depth : 8 bits
Scan type : Progressive
Bits/(Pixel*Frame) : 0.272
Stream size : 6.64 GiB (87%)
Title : The.Spectacular.Now.2013.1080p.BluRay.DTS.x264.Subthai.One2loadup.com
Writing library : x264 core 140 r2377 1ca7bb9
Encoding settings : cabac=1 / ref=5 / deblock=1:-1:-1 / analyse=0x3:0x133 / me=umh / subme=10 / psy=1 / psy_rd=1.02:0.25 / mixed_ref=1 / me_range=48 / chroma_me=1 / trellis=2 / 8x8dct=1 / cqm=0 / deadzone=21,11 / fast_pskip=0 / chroma_qp_offset=-5 / threads=12 / lookahead_threads=2 / sliced_threads=0 / nr=0 / decimate=1 / interlaced=0 / bluray_compat=0 / constrained_intra=0 / bframes=8 / b_pyramid=2 / b_adapt=2 / b_bias=0 / direct=3 / weightb=1 / open_gop=0 / weightp=2 / keyint=240 / keyint_min=23 / scenecut=40 / intra_refresh=0 / rc_lookahead=190 / rc=2pass / mbtree=1 / bitrate=10000 / ratetol=1.0 / qcomp=0.80 / qpmin=10 / qpmax=59 / qpstep=4 / cplxblur=20.0 / qblur=0.5 / vbv_maxrate=40000 / vbv_bufsize=30000 / nal_hrd=none / filler=0 / ip_ratio=1.30 / aq=1:1.00
Language : English
Default : Yes
Forced : No
Color range : Limited
Color primaries : BT.709
Transfer characteristics : BT.709
Matrix coefficients : BT.709

Audio
ID : 2
Format : DTS
Format/Info : Digital Theater Systems
Codec ID : A_DTS
Duration : 1 h 35 min
Bit rate mode : Constant
Bit rate : 1 509 kb/s
Channel(s) : 6 channels
Channel layout : C L R Ls Rs LFE
Sampling rate : 48.0 kHz
Frame rate : 93.750 FPS (512 SPF)
Bit depth : 24 bits
Compression mode : Lossy
Stream size : 1.00 GiB (13%)
Title : Eng DTS
Language : English
Default : No
Forced : No

Text #1
ID : 3
Format : ASS
Codec ID : S_TEXT/ASS
Codec ID/Info : Advanced Sub Station Alpha
Duration : 1 h 28 min
Bit rate : 249 b/s
Count of elements : 1413
Compression mode : Lossless
Stream size : 162 KiB (0%)
Title : Thai
Language : Thai
Default : Yes
Forced : Yes

Text #2
ID : 4
Format : SSA
Codec ID : S_TEXT/SSA
Codec ID/Info : Sub Station Alpha
Duration : 1 h 28 min
Bit rate : 147 b/s
Count of elements : 1432
Compression mode : Lossless
Stream size : 95.4 KiB (0%)
Title : Eng
Language : English
Default : No
Forced : No

Text #3
ID : 5
Format : UTF-8
Codec ID : S_TEXT/UTF8
Codec ID/Info : UTF-8 Plain Text
Duration : 1 h 32 min
Bit rate : 79 b/s
Count of elements : 1558
Stream size : 53.9 KiB (0%)
Title : Eng SRT
Language : English
Default : No
Forced : No

Text #4
ID : 6
Format : UTF-8
Codec ID : S_TEXT/UTF8
Codec ID/Info : UTF-8 Plain Text
Duration : 1 h 28 min
Bit rate : 71 b/s
Count of elements : 1335
Stream size : 46.3 KiB (0%)
Title : Spanish
Language : Spanish
Default : No
Forced : No

Menu
00:00:00.000 : en:00:00:00.000
00:06:19.296 : en:00:06:19.296
00:13:07.161 : en:00:13:07.161
00:20:16.799 : en:00:20:16.799
00:28:03.473 : en:00:28:03.473
00:34:48.837 : en:00:34:48.837
00:40:39.187 : en:00:40:39.187
00:46:48.055 : en:00:46:48.055
00:54:09.955 : en:00:54:09.955
01:00:50.814 : en:01:00:50.814
01:09:21.282 : en:01:09:21.282
01:12:14.330 : en:01:12:14.330
01:15:49.628 : en:01:15:49.628
01:19:33.769 : en:01:19:33.769
01:24:04.248 : en:01:24:04.248
01:27:09.015 : en:01:27:09.015

DOWNLOAD


PART01 |||| PART02 |||| PART03 |||| PART04 |||| PART05 |||| PART06

PART01 |||| PART02 |||| PART03 |||| PART04 |||| PART05 |||| PART06

PART01 |||| PART02 |||| PART03 |||| PART04 |||| PART05 |||| PART06

PART01 |||| PART02 |||| PART03 |||| PART04 |||| PART05 |||| PART06


Leave A Reply

Your email address will not be published.