[ฝรั่ง] The Mule (2018) เดอะ มิวล์ [1080p] [พากย์ไทย 5.1 + เสียงอังกฤษ 5.1] [บรรยายไทย + อังกฤษ] [เสียงไทย + ซับไทย] [PANDAFILE]

0

โหลดหนัง The Mule (2018) เดอะ มิวล์

The Mule (2018) 1h 56min | Crime, Drama, Thriller | 7 March 2019 (Netherlands) Summary: A 90-year-old horticulturist and Korean War veteran turns drug mule for a Mexican cartel.
Countries: USALanguages: English, Spanish

เรื่องย่อ The Mule (2018) เดอะ มิวล์

เรื่องราวของชายชราวัย 90 ปี และอดีตยังเคยเป็นทหารผ่านศึกในสงครามโลกครั้งที่สอง ในภายหลังได้ผันตัวมาเป็นคนขับรถรับส่งยาเสพติด แต่เขาก็ถูกจับได้โดยตำรวจของสหรัฐอเมริกา ในขณะที่ขนส่งโคเคนมูลค่า 3 ล้านเหรียญให้กับแก๊งค้ายาเสพติดเม็กซิกัน

Complete name : The.Mule.2018.1080p.BluRay.AC3.x264.One2loadup.com.mkv
Format : Matroska
Format version : Version 4
File size : 3.94 GiB
Duration : 1 h 56 min
Overall bit rate : 4 842 kb/s
Movie name : The.Mule.2018.1080p.BluRay.AC3.x264.One2loadup.com
Encoded date : UTC 2019-11-19 17:01:20
Writing application : mkvmerge v40.0.0 (‘Old Town Road + Pony’) 64-bit
Writing library : libebml v1.3.9 + libmatroska v1.5.2
Cover : Yes
Attachments : cover.jpg

Video
ID : 1
Format : AVC
Format/Info : Advanced Video Codec
Format profile : [email protected]
Format settings : CABAC / 1 Ref Frames
Format settings, CABAC : Yes
Format settings, ReFrames : 1 frame
Format settings, GOP : M=1, N=25
Codec ID : V_MPEG4/ISO/AVC
Duration : 1 h 56 min
Bit rate mode : Constant
Bit rate : 3 500 kb/s
Width : 1 920 pixels
Height : 800 pixels
Display aspect ratio : 2.40:1
Frame rate mode : Constant
Frame rate : 29.970 (30000/1001) FPS
Color space : YUV
Chroma subsampling : 4:2:0
Bit depth : 8 bits
Scan type : Progressive
Bits/(Pixel*Frame) : 0.076
Stream size : 2.84 GiB (72%)
Title : The.Mule.2018.1080p.BluRay.AC3.x264.One2loadup.com
Language : English
Default : Yes
Forced : No

Audio #1
ID : 2
Format : AC-3
Format/Info : Audio Coding 3
Commercial name : Dolby Digital
Codec ID : A_AC3
Duration : 1 h 56 min
Bit rate mode : Constant
Bit rate : 640 kb/s
Channel(s) : 6 channels
Channel layout : L R C LFE Ls Rs
Sampling rate : 44.1 kHz
Frame rate : 28.711 FPS (1536 SPF)
Bit depth : 16 bits
Compression mode : Lossy
Stream size : 533 MiB (13%)
Title : 5.1 AC3 TH1 640k
Language : Thai
Service kind : Complete Main
Default : Yes
Forced : No

Audio #2
ID : 3
Format : AC-3
Format/Info : Audio Coding 3
Commercial name : Dolby Digital
Codec ID : A_AC3
Duration : 1 h 56 min
Bit rate mode : Constant
Bit rate : 640 kb/s
Channel(s) : 6 channels
Channel layout : L R C LFE Ls Rs
Sampling rate : 44.1 kHz
Frame rate : 28.711 FPS (1536 SPF)
Bit depth : 16 bits
Compression mode : Lossy
Stream size : 533 MiB (13%)
Title : 5.1 AC3 EN
Language : English
Service kind : Complete Main
Default : No
Forced : No

Text #1
ID : 4
Format : PGS
Muxing mode : zlib
Codec ID : S_HDMV/PGS
Codec ID/Info : Picture based subtitle format used on BDs/HD-DVDs
Duration : 1 h 55 min
Bit rate : 34.9 kb/s
Count of elements : 3040
Stream size : 28.9 MiB (1%)
Title : TH 100-85-5.pgs.White
Language : Thai
Default : Yes
Forced : No

Text #2
ID : 5
Format : PGS
Muxing mode : zlib
Codec ID : S_HDMV/PGS
Codec ID/Info : Picture based subtitle format used on BDs/HD-DVDs
Duration : 1 h 48 min
Bit rate : 33.7 kb/s
Count of elements : 3038
Stream size : 26.1 MiB (1%)
Title : EN 100-85-5.pgs.yellow
Language : English
Default : No
Forced : No

Text #3
ID : 6
Format : PGS
Muxing mode : zlib
Codec ID : S_HDMV/PGS
Codec ID/Info : Picture based subtitle format used on BDs/HD-DVDs
Duration : 1 h 48 min
Bit rate : 39.0 kb/s
Count of elements : 3404
Stream size : 30.2 MiB (1%)
Title : PGS.EN-SDH
Language : English
Default : No
Forced : No

DOWNLOAD


PART01 |||| PART02 |||| PART03 |||| PART04

PART01 |||| PART02 |||| PART03 |||| PART04

PART01 |||| PART02 |||| PART03 |||| PART04

PART01 |||| PART02 |||| PART03 |||| PART04


Leave A Reply

Your email address will not be published.

%d bloggers like this: