โหลดหนัง HD MINI-HD SUPER-HQ Full-HD 1080p VIP Master Zoom ซูม หนังใหม่ ออนไลน์ มาสเตอร์ ไทย จีน ฝรั่ง การ์ตูน

[ฝรั่ง] The Legacy of a Whitetail Deer Hunter (2018) คุณพ่อหนวดดุสอนลูกให้เป็นพราน [1080p] [พากย์อังกฤษ 5.1] [Soundtrack บรรยายไทย] [เสียงอังกฤษ + ซับไทย] [ONE2UP]

0

โหลดหนัง The Legacy of a Whitetail Deer Hunter (2018) คุณพ่อหนวดดุสอนลูกให้เป็นพราน

เรื่องย่อ The Legacy of a Whitetail Deer Hunter (2018) คุณพ่อหนวดดุสอนลูกให้เป็นพราน

นักล่าสัตว์คนดังพยายามหาทางเชื่อมสัมพันธ์กับลูกชาย วัย 12 ปีในทริปล่าสัตว์ท่ามกลางผืนป่า แต่กลับได้่รู้ว่าความรู้สึกผูกพันไม่อาจฝืนใจกันได้

Complete name : The.Legacy.of.a.Whitetail.Deer.Hunter.2018.1080p.NETFLIX.APP-DL.DD5.1.x264.One2loadup.com.mkv
Format : Matroska
Format version : Version 4 / Version 2
File size : 4.26 GiB
Duration : 1 h 24 min
Overall bit rate : 7 262 kb/s
Movie name : The.Legacy.of.a.Whitetail.Deer.Hunter.2018.1080p.NETFLIX.APP-DL.DD5.1.x264.One2loadup.com
Encoded date : UTC 2018-07-06 10:29:14
Writing application : mkvmerge v24.0.0 (‘Beyond The Pale’) 64-bit
Writing library : libebml v1.3.6 + libmatroska v1.4.9

Video
ID : 1
Format : AVC
Format/Info : Advanced Video Codec
Format profile : [email protected]
Format settings : CABAC / 2 Ref Frames
Format settings, CABAC : Yes
Format settings, ReFrames : 2 frames
Format settings, GOP : M=1, N=12
Codec ID : V_MPEG4/ISO/AVC
Duration : 1 h 23 min
Bit rate : 7 026 kb/s
Width : 1 920 pixels
Height : 1 080 pixels
Display aspect ratio : 16:9
Frame rate mode : Constant
Frame rate : 23.976 (24000/1001) FPS
Color space : YUV
Chroma subsampling : 4:2:0
Bit depth : 8 bits
Scan type : Progressive
Bits/(Pixel*Frame) : 0.141
Stream size : 4.09 GiB (96%)
Title : The.Legacy.of.a.Whitetail.Deer.Hunter.2018.1080p.NETFLIX.APP-DL.DD5.1.x264.One2loadup.com
Language : English
Default : Yes
Forced : No

Audio
ID : 2
Format : E-AC-3
Format/Info : Enhanced Audio Coding 3
Codec ID : A_EAC3
Duration : 1 h 24 min
Bit rate mode : Constant
Bit rate : 192 kb/s
Channel(s) : 6 channels
Channel positions : Front: L C R, Side: L R, LFE
Sampling rate : 48.0 kHz
Frame rate : 187.500 FPS (256 SPF)
Compression mode : Lossy
Delay relative to video : -42 ms
Stream size : 115 MiB (3%)
Title : English AC3
Language : English
Service kind : Complete Main
Default : Yes
Forced : No

Text #1
ID : 3
Format : PGS
Muxing mode : zlib
Codec ID : S_HDMV/PGS
Codec ID/Info : Picture based subtitle format used on BDs/HD-DVDs
Duration : 1 h 22 min
Bit rate : 65.6 kb/s
Count of elements : 2290
Stream size : 38.6 MiB (1%)
Title : Thai PGS Yellow
Language : Thai
Default : Yes
Forced : No

Text #2
ID : 4
Format : PGS
Muxing mode : zlib
Codec ID : S_HDMV/PGS
Codec ID/Info : Picture based subtitle format used on BDs/HD-DVDs
Duration : 1 h 22 min
Bit rate : 65.6 kb/s
Count of elements : 2290
Stream size : 38.6 MiB (1%)
Title : Thai PGS
Language : Thai
Default : No
Forced : No

Text #3
ID : 5
Format : VobSub
Muxing mode : zlib
Codec ID : S_VOBSUB
Codec ID/Info : Picture based subtitle format used on DVDs
Duration : 1 h 22 min
Bit rate : 16.4 kb/s
Count of elements : 1145
Stream size : 9.63 MiB (0%)
Title : Thai Vobsub Yellow
Language : Thai
Default : No
Forced : No

Text #4
ID : 6
Format : VobSub
Muxing mode : zlib
Codec ID : S_VOBSUB
Codec ID/Info : Picture based subtitle format used on DVDs
Duration : 1 h 22 min
Bit rate : 16.8 kb/s
Count of elements : 1145
Stream size : 9.88 MiB (0%)
Title : Thai Vobsub
Language : Thai
Default : No
Forced : No

Text #5
ID : 7
Format : PGS
Muxing mode : zlib
Codec ID : S_HDMV/PGS
Codec ID/Info : Picture based subtitle format used on BDs/HD-DVDs
Duration : 1 h 21 min
Bit rate : 72.2 kb/s
Count of elements : 2730
Stream size : 42.3 MiB (1%)
Title : English PGS
Language : English
Default : No
Forced : No

 

DOWNLOAD


PART01 |||| PART02 |||| PART03 |||| PART04 |||| PART05

PART01 |||| PART02 |||| PART03 |||| PART04 |||| PART05

PART01 |||| PART02 |||| PART03 |||| PART04 |||| PART05

PART01 |||| PART02 |||| PART03 |||| PART04 |||| PART05


Leave A Reply

Your email address will not be published.

%d bloggers like this: