โหลดหนัง HD MINI-HD SUPER-HQ Full-HD 1080p VIP Master Zoom ซูม หนังใหม่ ออนไลน์ มาสเตอร์ ไทย จีน ฝรั่ง การ์ตูน

[ฝรั่ง] The Guernsey Literary and Potato Peel Pie Society (2018) จดหมายรักจากเกิร์นซีย์ [1080p] [Netflix] [พากย์อังกฤษ 5.1] [Soundtrack บรรยายไทย + อังกฤษ] [เสียงอังกฤษ + ซับไทย] [FILECLOUD]

0

The Guernsey Literary and Potato Peel Pie Society (2018) จดหมายรักจากเกิร์นซีย์

โหลดหนัง The Guernsey Literary and Potato Peel Pie Society (2018) จดหมายรักจากเกิร์นซีย์

เรื่องย่อ The Guernsey Literary and Potato Peel Pie Society (2018) จดหมายรักจากเกิร์นซีย์

นักเขียนสาวจากลอนดอนผูกสัมพันธ์กับผู้อยู่อาศัยในเกิร์นซีย์ เมื่อได้รู้เรื่องราวเกี่ยวกับชมรมหนังสือที่พวกเขาก่อตั้งขึ้นระหว่างถูกเยอรมนียึดครองในช่วงสงครามโลกครั้งที่ 2

Complete name : The.Guernsey.Literary.and.Potato.Peel.Pie.Society.2018.1080p.Netflix.Soundtrack.x264.One2loadup.com.mkv
Format : Matroska
Format version : Version 4 / Version 2
File size : 4.35 GiB
Duration : 2 h 3 min
Overall bit rate : 5 022 kb/s
Encoded date : UTC 2018-08-11 17:22:20
Writing application : mkvmerge v25.0.0 (‘Prog Noir’) 64-bit
Writing library : libebml v1.3.6 + libmatroska v1.4.9

Video
ID : 1
Format : AVC
Format/Info : Advanced Video Codec
Format profile : [email protected]
Format settings : CABAC / 3 Ref Frames
Format settings, CABAC : Yes
Format settings, ReFrames : 3 frames
Codec ID : V_MPEG4/ISO/AVC
Duration : 2 h 3 min
Bit rate : 4 805 kb/s
Width : 1 920 pixels
Height : 1 080 pixels
Display aspect ratio : 16:9
Frame rate mode : Constant
Frame rate : 24.000 FPS
Color space : YUV
Chroma subsampling : 4:2:0
Bit depth : 8 bits
Scan type : Progressive
Bits/(Pixel*Frame) : 0.097
Stream size : 4.16 GiB (96%)
Default : Yes
Forced : No

Audio
ID : 2
Format : E-AC-3
Format/Info : Enhanced Audio Coding 3
Codec ID : A_EAC3
Duration : 2 h 3 min
Bit rate mode : Constant
Bit rate : 192 kb/s
Channel(s) : 6 channels
Channel positions : Front: L C R, Side: L R, LFE
Sampling rate : 48.0 kHz
Frame rate : 187.500 FPS (256 SPF)
Compression mode : Lossy
Delay relative to video : -41 ms
Stream size : 170 MiB (4%)
Service kind : Complete Main
Default : Yes
Forced : No

Text #1
ID : 3
Format : PGS
Muxing mode : zlib
Codec ID : S_HDMV/PGS
Codec ID/Info : Picture based subtitle format used on BDs/HD-DVDs
Duration : 2 h 2 min
Bit rate : 44.3 kb/s
Count of elements : 3228
Stream size : 38.9 MiB (1%)
Title : Thai (PGS)
Language : Thai
Default : Yes
Forced : No

Text #2
ID : 4
Format : VobSub
Muxing mode : zlib
Codec ID : S_VOBSUB
Codec ID/Info : Picture based subtitle format used on DVDs
Duration : 2 h 2 min
Bit rate : 11.0 kb/s
Count of elements : 1614
Stream size : 9.69 MiB (0%)
Title : Thai (VobSub)
Language : Thai
Default : No
Forced : No

Text #3
ID : 5
Format : UTF-8
Codec ID : S_TEXT/UTF8
Codec ID/Info : UTF-8 Plain Text
Duration : 1 h 59 min
Bit rate : 63 b/s
Count of elements : 1752
Stream size : 55.5 KiB (0%)
Title : Eng (SRT)
Language : English
Default : No
Forced : No

DOWNLOAD


PART01 |||| PART02 |||| PART03 |||| PART04 |||| PART05

PART01 |||| PART02 |||| PART03 |||| PART04 |||| PART05

PART01 |||| PART02 |||| PART03 |||| PART04 |||| PART05

PART01 |||| PART02 |||| PART03 |||| PART04 |||| PART05


Leave A Reply

Your email address will not be published.

%d bloggers like this: