[ฝรั่ง] The Book of Henry (2017) เดอะ บุ๊ค ออฟ เฮนรี่ [1080p] [พากย์อังกฤษ 5.1] [NETFLIX] [บรรยายไทย + อังกฤษ] [เสียงอังกฤษ + ซับไทย] [OPENLOAD]

0

The Book of Henry (2017)

โหลดหนัง The Book of Henry (2017) เดอะ บุ๊ค ออฟ เฮนรี่

The Book of Henry (2017) 1h 45min | Crime, Drama, Thriller | 23 June 2017 (USA) Summary: With instructions from her genius son's carefully crafted notebook, a single mother sets out to rescue a young girl from the hands of her abusive stepfather.
Countries: USALanguages: English

เรื่องย่อ The Book of Henry (2017) เดอะ บุ๊ค ออฟ เฮนรี่

เด็กน้อยวัย 11 ขวบมุ่งมั่นจะช่วยเพื่อนบ้านใหม่ที่ดูเหมือนว่ากำลังตกอยู่ในอันตราย พร้อมกับจดบันทึกความพยายามของเขาและบันทึกเสียงเอาไว้เป็นชุด

Complete name : The.Book.of.Henry.2017.1080p.WEB-DL.AC3.x264.Subthai.One2loadup.com.mkv
Format : Matroska
Format version : Version 4
File size : 3.52 GiB
Duration : 1 h 44 min
Overall bit rate : 4 814 kb/s
Movie name : The.Book.of.Henry.2017.1080p.WEB-DL.AC3.x264.Subthai.One2loadup.com
Encoded date : UTC 2019-08-07 10:47:43
Writing application : mkvmerge v24.0.0 (‘Beyond The Pale’) 64-bit
Writing library : libebml v1.3.6 + libmatroska v1.4.9

Video
ID : 1
Format : AVC
Format/Info : Advanced Video Codec
Format profile : [email protected]
Format settings : 1 Ref Frames
Format settings, CABAC : No
Format settings, ReFrames : 1 frame
Codec ID : V_MPEG4/ISO/AVC
Duration : 1 h 44 min
Bit rate : 4 135 kb/s
Width : 1 920 pixels
Height : 1 080 pixels
Display aspect ratio : 16:9
Frame rate mode : Constant
Frame rate : 29.970 FPS
Original frame rate : 29.000 FPS
Color space : YUV
Chroma subsampling : 4:2:0
Bit depth : 8 bits
Scan type : Progressive
Bits/(Pixel*Frame) : 0.067
Stream size : 3.03 GiB (86%)
Title : The.Book.of.Henry.2017.1080p.WEB-DL.AC3.x264.Subthai.One2loadup.com
Default : Yes
Forced : No
Comment : NETFLIX BY ARGON

Audio
ID : 2
Format : E-AC-3
Format/Info : Enhanced AC-3
Commercial name : Dolby Digital Plus
Codec ID : A_EAC3
Duration : 1 h 44 min
Bit rate mode : Constant
Bit rate : 640 kb/s
Channel(s) : 6 channels
Channel layout : L R C LFE Ls Rs
Sampling rate : 48.0 kHz
Frame rate : 31.250 FPS (1536 SPF)
Compression mode : Lossy
Delay relative to video : -20 ms
Stream size : 480 MiB (13%)
Title : EN AC3
Language : English
Service kind : Complete Main
Default : Yes
Forced : No

Text #1
ID : 3
Format : PGS
Muxing mode : zlib
Codec ID : S_HDMV/PGS
Codec ID/Info : Picture based subtitle format used on BDs/HD-DVDs
Duration : 1 h 38 min
Bit rate : 18.6 kb/s
Count of elements : 2360
Stream size : 13.1 MiB (0%)
Title : TH_PGS
Language : Thai
Default : Yes
Forced : No

Text #2
ID : 4
Format : VobSub
Muxing mode : zlib
Codec ID : S_VOBSUB
Codec ID/Info : Picture based subtitle format used on DVDs
Duration : 1 h 38 min
Bit rate : 8 631 b/s
Count of elements : 1180
Stream size : 6.05 MiB (0%)
Title : TH_VOBSUB
Language : Thai
Default : No
Forced : No

Text #3
ID : 5
Format : VobSub
Muxing mode : zlib
Codec ID : S_VOBSUB
Codec ID/Info : Picture based subtitle format used on DVDs
Duration : 1 h 38 min
Bit rate : 8 627 b/s
Count of elements : 1180
Stream size : 6.05 MiB (0%)
Title : TH_VOBSUB_YELLOW
Language : Thai
Default : No
Forced : No

Text #4
ID : 6
Format : PGS
Muxing mode : zlib
Codec ID : S_HDMV/PGS
Codec ID/Info : Picture based subtitle format used on BDs/HD-DVDs
Duration : 1 h 38 min
Bit rate : 40.4 kb/s
Count of elements : 2776
Stream size : 28.3 MiB (1%)
Title : EN_PGS
Language : English
Default : No
Forced : No

DOWNLOAD


PART01 |||| PART02 |||| PART03 |||| PART04

PART01 |||| PART02 |||| PART03 |||| PART04

PART01 |||| PART02 |||| PART03 |||| PART04

PART01 |||| PART02 |||| PART03 |||| PART04


Leave A Reply

Your email address will not be published.

%d bloggers like this: