[ฝรั่ง] The Art of Racing in the Rain (2019) อุ่นไอหัวใจตูบ [1080p] [พากย์ไทย 5.1 + เสียงอังกฤษ 5.1] [บรรยายไทย + อังกฤษ] [เสียงไทย + ซับไทย] [PANDAFILE]

0

โหลดหนัง The Art of Racing in the Rain (2019) อุ่นไอหัวใจตูบ

Enzo und die wundersame Welt der Menschen (2019) 1h 49min | Comedy, Drama, Romance | 3 October 2019 (Germany) Summary: Through his bond with his owner, aspiring Formula One race car driver Denny, golden retriever Enzo learns that the techniques needed on the racetrack can also be used to successfully navigate the journey of life.
Countries: USALanguages: English, Italian

เรื่องย่อ The Art of Racing in the Rain (2019) อุ่นไอหัวใจตูบ

จากนิยายขายดีฝีมือการ์ธ สไตน์ สู่ภาพยนตร์ที่บอกเล่าโดยน้องหมาแสนรู้ชื่อว่า เอนโซ (พากย์เสียงโดย เควิน คอสต์เนอร์) กับเรื่องราวชวนประทับใจของมิตรภาพของมันและเจ้านายที่รัก เดนนี่ สวิฟต์ (ไมโล เวนทิมิเกลีย) ผู้เป็นนักแข่งรถฟอร์มูล่าวันมือฉมังเอนโซได้ทำความเข้าใจเกี่ยวกับมนุษย์ และได้รับบทเรียนครั้งยิ่งใหญ่ว่าเทคนิคในสนามแข่งรถนั้น สามารถนำมาปรับใช้ให้เข้ากับการเดินทางของชีวิตอีกด้วย พร้อมท่องไปในโลกของน้องหมาเอนโซ พร้อมกับครอบครัวของเดนนี่ ร่วมด้วยศรีภรรยาของเขา อีฟ (อะแมนด้า ไซย์ฟรีด)และลูกสาวสุดที่รัก โซอี้ (ไรอัน คิเอร่า อาร์มสตรอง) การันตีความน่ารักน่าเอ็นดูโดยทีมผู้สร้างจาก “Marley & Me” นำโดยผู้กำกับฯ ไซมอน เคอร์ทิส และผู้เขียนบทฯ มาร์ค บอมแบ็ก!!!

Complete name : The.Art.of.Racing.in.the.Rain.2019.1080p.BluRay.AC3.H264.One2loadup.com.mkv
Format : Matroska
Format version : Version 4
File size : 3.84 GiB
Duration : 1 h 49 min
Overall bit rate : 5 035 kb/s
Movie name : The.Art.of.Racing.in.the.Rain.2019.1080p.BluRay.AC3.H264.One2loadup.com
Encoded date : UTC 2019-11-28 19:25:24
Writing application : mkvmerge v40.0.0 (‘Old Town Road + Pony’) 64-bit
Writing library : libebml v1.3.9 + libmatroska v1.5.2
Cover : Yes
Attachments : cover.jpg

Video
ID : 1
Format : AVC
Format/Info : Advanced Video Codec
Format profile : [email protected]
Format settings : CABAC / 1 Ref Frames
Format settings, CABAC : Yes
Format settings, ReFrames : 1 frame
Format settings, GOP : M=1, N=25
Codec ID : V_MPEG4/ISO/AVC
Duration : 1 h 48 min
Bit rate mode : Constant
Bit rate : 4 000 kb/s
Width : 1 920 pixels
Height : 1 040 pixels
Display aspect ratio : 1.85:1
Frame rate mode : Constant
Frame rate : 29.970 (30000/1001) FPS
Color space : YUV
Chroma subsampling : 4:2:0
Bit depth : 8 bits
Scan type : Progressive
Bits/(Pixel*Frame) : 0.067
Stream size : 3.04 GiB (79%)
Title : The.Art.of.Racing.in.the.Rain.2019.1080p.BluRay.AC3.H264.One2loadup.com
Language : English
Default : Yes
Forced : No

Audio #1
ID : 2
Format : AC-3
Format/Info : Audio Coding 3
Commercial name : Dolby Digital
Codec ID : A_AC3
Duration : 1 h 49 min
Bit rate mode : Constant
Bit rate : 320 kb/s
Channel(s) : 6 channels
Channel layout : L R C LFE Ls Rs
Sampling rate : 44.1 kHz
Frame rate : 28.711 FPS (1536 SPF)
Bit depth : 16 bits
Compression mode : Lossy
Stream size : 250 MiB (6%)
Title : 5.1 AC3 TH 320k 249m
Language : Thai
Service kind : Complete Main
Default : Yes
Forced : No

Audio #2
ID : 3
Format : AC-3
Format/Info : Audio Coding 3
Commercial name : Dolby Digital
Codec ID : A_AC3
Duration : 1 h 48 min
Bit rate mode : Constant
Bit rate : 640 kb/s
Channel(s) : 6 channels
Channel layout : L R C LFE Ls Rs
Sampling rate : 44.1 kHz
Frame rate : 28.711 FPS (1536 SPF)
Bit depth : 16 bits
Compression mode : Lossy
Stream size : 498 MiB (13%)
Title : 5.1 AC3 EN 640k 498m
Language : English
Service kind : Complete Main
Default : No
Forced : No

Text #1
ID : 4
Format : PGS
Muxing mode : zlib
Codec ID : S_HDMV/PGS
Codec ID/Info : Picture based subtitle format used on BDs/HD-DVDs
Duration : 1 h 48 min
Bit rate : 41.8 kb/s
Count of elements : 2810
Stream size : 32.4 MiB (1%)
Title : TH.Pgs.white
Language : Thai
Default : Yes
Forced : No

Text #2
ID : 5
Format : PGS
Muxing mode : zlib
Codec ID : S_HDMV/PGS
Codec ID/Info : Picture based subtitle format used on BDs/HD-DVDs
Duration : 1 h 43 min
Bit rate : 54.0 kb/s
Count of elements : 3508
Stream size : 40.0 MiB (1%)
Title : EN.SDH.PGS.Purple
Language : English
Default : No
Forced : No

Text #3
ID : 6
Format : VobSub
Muxing mode : zlib
Codec ID : S_VOBSUB
Codec ID/Info : Picture based subtitle format used on DVDs
Duration : 1 h 48 min
Bit rate : 3 691 b/s
Count of elements : 1767
Stream size : 2.86 MiB (0%)
Title : VOB-white
Language : English
Default : No
Forced : No

Text #4
ID : 7
Format : PGS
Muxing mode : zlib
Codec ID : S_HDMV/PGS
Codec ID/Info : Picture based subtitle format used on BDs/HD-DVDs
Duration : 1 h 41 min
Bit rate : 46.2 kb/s
Count of elements : 3588
Stream size : 33.7 MiB (1%)
Title : EN.PGS.yellow
Language : English
Default : No
Forced : No

DOWNLOAD


PART01 |||| PART02 |||| PART03 |||| PART04

PART01 |||| PART02 |||| PART03 |||| PART04

PART01 |||| PART02 |||| PART03 |||| PART04

PART01 |||| PART02 |||| PART03 |||| PART04


Leave A Reply

Your email address will not be published.

%d bloggers like this: