โหลดหนัง HD MINI-HD SUPER-HQ Full-HD 1080p VIP Master Zoom ซูม หนังใหม่ ออนไลน์ มาสเตอร์ ไทย จีน ฝรั่ง การ์ตูน

[ฝรั่ง] Rescue Under Fire (Zona hostil) (2017) ทีมกู้ชีพมหาประลัย [720p] [พากย์ไทย 2.0 + สเปน 5.1] [บรรยายอังกฤษ] [เสียงไทยมาสเตอร์] [OPENLOAD]

2

โหลดหนัง Rescue Under Fire (Zona hostil) (2017) ทีมกู้ชีพมหาประลัย 

เรื่องย่อ Rescue Under Fire (Zona hostil) (2017) ทีมกู้ชีพมหาประลัย

หนัง Rescue Under Fire หรือชื่อสเปนว่า Zona hostil หรือชื่อไทยว่า ทีมกู้ชีพมหาประลัย นี่คือในสงครามอัฟกานิสถานสุดอันตราย กองกำลังทหารของสเปนที่ร่วมเข้ารบกับกองกำลังสหรัฐฯได้ถูกซุ่มโจมตีระหว่างทาง ทำให้ต้องส่งทีมกู้ชีพเข้าไปช่วยเหลือ แต่เหตุการณ์กลับซ้ำร้ายยยิ่งขึ้นเมื่อเจอกองกำลังของกลุ่มตาลีบัน Talibans

Complete name : Rescue.Under.Fire.2017.720p.bluray.x264.One2loadup.com.mkv
Format : Matroska
Format version : Version 4 / Version 2
File size : 5.55 GiB
Duration : 1 h 34 min
Overall bit rate mode : Variable
Overall bit rate : 8 408 kb/s
Encoded date : UTC 2018-06-05 12:15:10
Writing application : mkvmerge v23.0.0 (‘The Bride Said No’) 64-bit
Writing library : libebml v1.3.6 + libmatroska v1.4.9

Video
ID : 1
Format : AVC
Format/Info : Advanced Video Codec
Format profile : [email protected]
Format settings : CABAC / 5 Ref Frames
Format settings, CABAC : Yes
Format settings, ReFrames : 5 frames
Codec ID : V_MPEG4/ISO/AVC
Duration : 1 h 33 min
Bit rate : 5 430 kb/s
Width : 1 280 pixels
Height : 536 pixels
Display aspect ratio : 2.40:1
Frame rate mode : Constant
Frame rate : 24.000 FPS
Color space : YUV
Chroma subsampling : 4:2:0
Bit depth : 8 bits
Scan type : Progressive
Bits/(Pixel*Frame) : 0.330
Stream size : 3.53 GiB (64%)
Writing library : x264 core 150 r2829 d1fe6fd
Encoding settings : cabac=1 / ref=5 / deblock=1:-3:-3 / analyse=0x3:0x133 / me=umh / subme=9 / psy=1 / psy_rd=1.00:0.00 / mixed_ref=1 / me_range=16 / chroma_me=1 / trellis=2 / 8x8dct=1 / cqm=0 / deadzone=21,11 / fast_pskip=0 / chroma_qp_offset=-2 / threads=17 / lookahead_threads=1 / sliced_threads=0 / nr=0 / decimate=1 / interlaced=0 / bluray_compat=0 / constrained_intra=0 / bframes=3 / b_pyramid=2 / b_adapt=1 / b_bias=0 / direct=3 / weightb=1 / open_gop=0 / weightp=2 / keyint=250 / keyint_min=24 / scenecut=40 / intra_refresh=0 / rc_lookahead=50 / rc=2pass / mbtree=1 / bitrate=5430 / ratetol=1.0 / qcomp=0.60 / qpmin=0 / qpmax=69 / qpstep=4 / cplxblur=20.0 / qblur=0.5 / ip_ratio=1.40 / aq=1:1.00
Language : English
Default : Yes
Forced : No

Audio #1
ID : 2
Format : AAC
Format/Info : Advanced Audio Codec
Format profile : LC
Codec ID : A_AAC-2
Duration : 1 h 34 min
Bit rate : 128 kb/s
Channel(s) : 2 channels
Channel positions : Front: L R
Sampling rate : 48.0 kHz
Frame rate : 46.875 FPS (1024 SPF)
Compression mode : Lossy
Stream size : 86.5 MiB (2%)
Language : Thai
Default : No
Forced : No

Audio #2
ID : 3
Format : FLAC
Format/Info : Free Lossless Audio Codec
Codec ID : A_FLAC
Duration : 1 h 34 min
Bit rate mode : Variable
Bit rate : 2 926 kb/s
Channel(s) : 6 channels
Channel positions : Front: L C R, Side: L R, LFE
Sampling rate : 48.0 kHz
Frame rate : 11.719 FPS (4096 SPF)
Bit depth : 24 bits
Stream size : 1.93 GiB (35%)
Writing library : libFLAC 1.2.1 (UTC 2007-09-17)
Language : Spanish
Default : Yes
Forced : No

Text
ID : 4
Format : UTF-8
Codec ID : S_TEXT/UTF8
Codec ID/Info : UTF-8 Plain Text
Duration : 1 h 28 min
Bit rate : 49 b/s
Count of elements : 1114
Stream size : 31.7 KiB (0%)
Title : forced
Language : English
Default : Yes
Forced : Yes

Menu
00:00:00.000 : en:00:00:00.000
00:05:05.583 : en:00:05:05.583
00:11:25.833 : en:00:11:25.833
00:17:00.292 : en:00:17:00.292
00:24:02.833 : en:00:24:02.833
00:29:09.458 : en:00:29:09.458
00:33:59.333 : en:00:33:59.333
00:41:28.917 : en:00:41:28.917
00:46:12.167 : en:00:46:12.167
00:52:40.750 : en:00:52:40.750
00:58:17.667 : en:00:58:17.667
01:02:54.958 : en:01:02:54.958
01:09:13.250 : en:01:09:13.250
01:15:19.292 : en:01:15:19.292
01:21:32.583 : en:01:21:32.583
01:27:21.042 : en:01:27:21.042

DOWNLOAD


PART01 |||| PART02 |||| PART03 |||| PART04 |||| PART05 |||| PART06

PART01 |||| PART02 |||| PART03 |||| PART04 |||| PART05 |||| PART06

PART01 |||| PART02 |||| PART03 |||| PART04 |||| PART05 |||| PART06

PART01 |||| PART02 |||| PART03 |||| PART04 |||| PART05 |||| PART06


2 Comments
  1. teacup says

    link ไม่ไปแล้วคับ

    1. Admin
      Admin says

      แก้ไขเรียบร้อยฮ๊ะ

Leave A Reply

Your email address will not be published.

%d bloggers like this: