[ฝรั่ง] Ad Astra (2019) ภารกิจตะลุยดาว [1080p] [พากย์ไทย มาสเตอร์ + เสียงอังกฤษ 5.1] [บรรยายไทย + อังกฤษ] [เสียงไทย + ซับไทย] [PANDAFILE]

2

Ad Astra (2019)

โหลดหนัง Ad Astra (2019) ภารกิจตะลุยดาว

Ad Astra: Zu den Sternen (2019) 2h 3min | Adventure, Drama, Mystery | 19 September 2019 (Germany) Summary: Astronaut Roy McBride undertakes a mission across an unforgiving solar system to uncover the truth about his missing father and his doomed expedition that now, 30 years later, threatens the universe.
Countries: USA, ChinaLanguages: English, Japanese, Russian, Norwegian

เรื่องย่อ Ad Astra (2019) ภารกิจตะลุยดาว

“Ad Astra” กำกับฯโดย เจมส์ เกรย์ เขียนบทฯโดย อีธาน กรอสนำแสดงโดย แบรด พิตต์, ทอมมี่ ลี โจนส์, โดนัล์ด ซูเธอร์แลนด์, จอห์น ออร์ทิส, เจมี่ เคนเนดี้ และรูธ เนกก้ากับเรื่องราวของนักบินอวกาศ รอย แม็คไบรด์ (แบรด พิตต์) ต้องรับหน้าที่ทำภารกิจสำคัญที่สุดในชีวิตนั่นก็คือการเดินทางข้ามระบบสุริยจักรวาล เพื่อตามหาพ่อผู้เป็นที่รักที่หายตัวไปอย่างลึกลับซึ่งสาเหตุนั้นอาจข้องเกี่ยวกับปริศนาที่ยังหาคำตอบไม่ได้และเป็นความลับที่คุกคามการดำรงชีวิตอยู่ของมนุษยชาติบนโลกของเรา!!!

Complete name : Ad.Astra.2019.1080p.WEB-DL.AC3.x264.One2loadup.com.mkv
Format : Matroska
Format version : Version 4
File size : 4.76 GiB
Duration : 2 h 3 min
Overall bit rate : 5 528 kb/s
Movie name : Ad.Astra.2019.1080p.WEB-DL.AC3.x264.One2loadup.com
Encoded date : UTC 2010-02-22 21:41:31
Writing application : mkvmerge v5.9.0 (‘On The Loose’) built on Dec 9 2012 15:37:01
Writing library : libebml v1.3.0 + libmatroska v1.4.0

Video
ID : 1
Format : AVC
Format/Info : Advanced Video Codec
Format profile : [email protected]
Format settings : CABAC / 5 Ref Frames
Format settings, CABAC : Yes
Format settings, ReFrames : 5 frames
Muxing mode : Header stripping
Codec ID : V_MPEG4/ISO/AVC
Duration : 2 h 3 min
Bit rate : 4 650 kb/s
Width : 1 920 pixels
Height : 804 pixels
Display aspect ratio : 2.40:1
Frame rate mode : Constant
Frame rate : 24.000 FPS
Color space : YUV
Chroma subsampling : 4:2:0
Bit depth : 8 bits
Scan type : Progressive
Bits/(Pixel*Frame) : 0.126
Stream size : 4.01 GiB (84%)
Title : Ad.Astra.2019.1080p.WEB-DL.AC3.x264.One2loadup.com
Language : English
Default : Yes
Forced : No
Color range : Limited
Color primaries : BT.709
Transfer characteristics : BT.709
Matrix coefficients : BT.709

Audio #1
ID : 2
Format : AC-3
Format/Info : Audio Coding 3
Commercial name : Dolby Digital
Muxing mode : Header stripping
Codec ID : A_AC3
Duration : 2 h 3 min
Bit rate mode : Constant
Bit rate : 384 kb/s
Channel(s) : 2 channels
Channel layout : L R
Sampling rate : 48.0 kHz
Frame rate : 31.250 FPS (1536 SPF)
Bit depth : 16 bits
Compression mode : Lossy
Stream size : 339 MiB (7%)
Title : Thai Master
Language : Thai
Service kind : Complete Main
Default : Yes
Forced : Yes

Audio #2
ID : 3
Format : AC-3
Format/Info : Audio Coding 3
Commercial name : Dolby Digital
Muxing mode : Header stripping
Codec ID : A_AC3
Duration : 2 h 3 min
Bit rate mode : Constant
Bit rate : 384 kb/s
Channel(s) : 6 channels
Channel layout : L R C LFE Ls Rs
Sampling rate : 48.0 kHz
Frame rate : 31.250 FPS (1536 SPF)
Bit depth : 16 bits
Compression mode : Lossy
Stream size : 339 MiB (7%)
Title : English 5.1
Language : English
Service kind : Complete Main
Default : No
Forced : No

Text #1
ID : 4
Format : VobSub
Codec ID : S_VOBSUB
Codec ID/Info : Picture based subtitle format used on DVDs
Title : Thai 720p
Language : Thai
Default : No
Forced : No

Text #2
ID : 5
Format : VobSub
Codec ID : S_VOBSUB
Codec ID/Info : Picture based subtitle format used on DVDs
Title : Thai 1080p
Language : Thai
Default : Yes
Forced : Yes

Text #3
ID : 6
Format : VobSub
Codec ID : S_VOBSUB
Codec ID/Info : Picture based subtitle format used on DVDs
Title : Thai 1080p Yellow
Language : Thai
Default : No
Forced : No

Text #4
ID : 7
Format : VobSub
Codec ID : S_VOBSUB
Codec ID/Info : Picture based subtitle format used on DVDs
Title : Thai 1080p Out
Language : Thai
Default : No
Forced : No

Text #5
ID : 8
Format : VobSub
Codec ID : S_VOBSUB
Codec ID/Info : Picture based subtitle format used on DVDs
Title : Thai 1080p BIG
Language : Thai
Default : No
Forced : No

Text #6
ID : 9
Format : VobSub
Codec ID : S_VOBSUB
Codec ID/Info : Picture based subtitle format used on DVDs
Title : Thai 1080p Out [BIG]
Language : Thai
Default : No
Forced : No

Text #7
ID : 10
Format : PGS
Codec ID : S_HDMV/PGS
Codec ID/Info : Picture based subtitle format used on BDs/HD-DVDs
Title : Thai PGS
Language : Thai
Default : No
Forced : No

Text #8
ID : 11
Format : PGS
Codec ID : S_HDMV/PGS
Codec ID/Info : Picture based subtitle format used on BDs/HD-DVDs
Title : Thai PGS Yellow
Language : Thai
Default : No
Forced : No

Text #9
ID : 12
Format : PGS
Codec ID : S_HDMV/PGS
Codec ID/Info : Picture based subtitle format used on BDs/HD-DVDs
Title : Thai PGS Out
Language : Thai
Default : No
Forced : No

Text #10
ID : 13
Format : PGS
Codec ID : S_HDMV/PGS
Codec ID/Info : Picture based subtitle format used on BDs/HD-DVDs
Title : English
Language : English
Default : No
Forced : No

Menu
00:00:00.043 : :Chapter 1
00:04:23.682 : :Chapter 2
00:08:49.697 : :Chapter 3
00:16:26.779 : :Chapter 4
00:22:34.813 : :Chapter 5
00:30:09.518 : :Chapter 6
00:35:09.275 : :Chapter 7
00:40:34.350 : :Chapter 8
00:44:46.394 : :Chapter 9
00:48:57.812 : :Chapter 10
00:53:52.815 : :Chapter 11
00:56:44.778 : :Chapter 12
01:01:32.899 : :Chapter 13
01:07:24.876 : :Chapter 14
01:12:13.414 : :Chapter 15
01:17:00.117 : :Chapter 16
01:21:36.185 : :Chapter 17
01:24:43.664 : :Chapter 18
01:31:17.557 : :Chapter 19
01:36:28.034 : :Chapter 20
01:41:00.598 : :Chapter 21
01:46:27.591 : :Chapter 22
01:50:01.054 : :Chapter 23
01:53:18.794 : :Chapter 24

DOWNLOAD


PART01 |||| PART02 |||| PART03 |||| PART04 |||| PART05

PART01 |||| PART02 |||| PART03 |||| PART04 |||| PART05

PART01 |||| PART02 |||| PART03 |||| PART04 |||| PART05

PART01 |||| PART02 |||| PART03 |||| PART04 |||| PART05


2 Comments
  1. kong says

    all link is virus

    1. Admin
      Admin says

      The link does not contain a virus, but is an advertisement for a file hosting website that is a virus. Recommend opening the virus scan too

Leave A Reply

Your email address will not be published.

%d bloggers like this: