[ฝรั่ง] American Woman (2018) [1080p] [พากย์ไทย 5.1 + เสียงอังกฤษ 5.1] [บรรยายไทย + อังกฤษ] [เสียงไทย + ซับไทย] [PANDAFILE]

0

American Woman (2018)

โหลดหนัง American Woman (2018)

American Woman (2018) 1h 51min | Drama, Mystery | 14 June 2019 (USA) Summary: A woman raises her young grandson after her daughter goes missing.
Countries: UK, USALanguages: English

เรื่องย่อ American Woman (2018)

หนังเล่าเรื่องเกี่ยวกับชนชั้นแรงงาน “เดบรา” อดีตเด็กสก๊อยใจแตกปากจัด ที่พลาดท่าท้องจนมีลูกตั้งแต่อายุ 16 จนกลายเป็นคุณแม่เลี้ยงเดี่ยวเป็นสาวเสิร์ฟเลี้ยงลูกไปวันๆ มีงานอดิเรกคือการเป็นเมียน้อยกับสามีชาวบ้านโดยหวังลมๆแล้งๆว่าจะมีผู้ชายมารักจริงจังจนเมื่อ บริดเจ็ต ลูกสาวโตจนอายุ 16 ก็เจริญตามรอยแม่ ด้วยการมีลูกในวัยเรียนด้วยเช่นกัน ทำให้เดบรา ต้องมีสถานะเป็นคุณยายด้วยวัยแค่ 32 ปีโดยมีครอบครัวของพี่สาวอาศัยอยู่บ้านตรงกันข้ามและแม่ที่แวะเวียนมาเยี่ยมสม่ำเสมอคอยช่วยเหลือเป็นระยะหนังเล่าเรื่องอย่างรวดเร็วจนถึงคืนหนึ่ง บริดเจ็ต ออกไปเที่ยวกับ ไทเลอร์ แฟนเก่า(พ่อของเด็ก) แล้วหายตัวไปอย่างไร้ร่องรอยทิ้งลูกน้อย”เจสซี่” ไว้ให้ยายเลี้ยงตามลำพัง

Complete name : American.Woman.2018.1080p.BluRay.AC3.x264.One2loadup.com.mkv
Format : Matroska
Format version : Version 4
File size : 3.92 GiB
Duration : 1 h 51 min
Overall bit rate : 5 018 kb/s
Movie name : American.Woman.2018.1080p.BluRay.AC3.x264.One2loadup.com
Encoded date : UTC 2019-11-09 14:26:03
Writing application : mkvmerge v40.0.0 (‘Old Town Road + Pony’) 64-bit
Writing library : libebml v1.3.9 + libmatroska v1.5.2
Cover : Yes
Attachments : cover.jpg

Video
ID : 1
Format : AVC
Format/Info : Advanced Video Codec
Format profile : [email protected]
Format settings : CABAC / 1 Ref Frames
Format settings, CABAC : Yes
Format settings, ReFrames : 1 frame
Format settings, GOP : M=1, N=25
Codec ID : V_MPEG4/ISO/AVC
Duration : 1 h 51 min
Bit rate mode : Constant
Bit rate : 4 000 kb/s
Width : 1 920 pixels
Height : 800 pixels
Display aspect ratio : 2.40:1
Frame rate mode : Constant
Frame rate : 29.970 (30000/1001) FPS
Color space : YUV
Chroma subsampling : 4:2:0
Bit depth : 8 bits
Scan type : Progressive
Bits/(Pixel*Frame) : 0.087
Stream size : 3.12 GiB (80%)
Title : American.Woman.2018.1080p.BluRay.AC3.x264.One2loadup.com
Language : English
Default : Yes
Forced : No

Audio #1
ID : 2
Format : AC-3
Format/Info : Audio Coding 3
Commercial name : Dolby Digital
Codec ID : A_AC3
Duration : 1 h 51 min
Bit rate mode : Constant
Bit rate : 320 kb/s
Channel(s) : 6 channels
Channel layout : L R C LFE Ls Rs
Sampling rate : 44.1 kHz
Frame rate : 28.711 FPS (1536 SPF)
Bit depth : 16 bits
Compression mode : Lossy
Stream size : 256 MiB (6%)
Title : 5.1 AC3 TH 320k
Language : Thai
Service kind : Complete Main
Default : Yes
Forced : No

Audio #2
ID : 3
Format : AC-3
Format/Info : Audio Coding 3
Commercial name : Dolby Digital
Codec ID : A_AC3
Duration : 1 h 51 min
Bit rate mode : Constant
Bit rate : 640 kb/s
Channel(s) : 6 channels
Channel layout : L R C LFE Ls Rs
Sampling rate : 44.1 kHz
Frame rate : 28.711 FPS (1536 SPF)
Bit depth : 16 bits
Compression mode : Lossy
Stream size : 512 MiB (13%)
Title : 5.1 AC3 En 640k
Language : English
Service kind : Complete Main
Default : No
Forced : No

Text #1
ID : 4
Format : PGS
Muxing mode : zlib
Codec ID : S_HDMV/PGS
Codec ID/Info : Picture based subtitle format used on BDs/HD-DVDs
Duration : 1 h 51 min
Bit rate : 29.2 kb/s
Count of elements : 2298
Stream size : 23.3 MiB (1%)
Title : (Thai)PGS[White]
Language : Thai
Default : Yes
Forced : No

Text #2
ID : 5
Format : PGS
Muxing mode : zlib
Codec ID : S_HDMV/PGS
Codec ID/Info : Picture based subtitle format used on BDs/HD-DVDs
Duration : 1 h 47 min
Bit rate : 32.3 kb/s
Count of elements : 3146
Stream size : 24.7 MiB (1%)
Title : PGS-EN[yellow]
Language : English
Default : No
Forced : No

Text #3
ID : 6
Format : PGS
Muxing mode : zlib
Codec ID : S_HDMV/PGS
Codec ID/Info : Picture based subtitle format used on BDs/HD-DVDs
Duration : 1 h 47 min
Bit rate : 37.4 kb/s
Count of elements : 3582
Stream size : 28.7 MiB (1%)
Title : SDH=ผู้บกพร่องทางเสียง.PGS
Language : English
Default : No
Forced : No

DOWNLOAD


PART01 |||| PART02 |||| PART03 |||| PART04

PART01 |||| PART02 |||| PART03 |||| PART04

PART01 |||| PART02 |||| PART03 |||| PART04

PART01 |||| PART02 |||| PART03 |||| PART04


Leave A Reply

Your email address will not be published.

%d bloggers like this: