โหลดหนัง HD MINI-HD SUPER-HQ Full-HD 1080p VIP Master Zoom ซูม หนังใหม่ ออนไลน์ มาสเตอร์ ไทย จีน ฝรั่ง การ์ตูน

[จีน] Shadow (2018) จอมคนกระบี่เงา [4K HD] [WEB-DL] [พากย์ไทย 5.1 + เสียงจีน 5.1] [บรรยายไทย + อังกฤษฝัง] [เสียงไทย + ซับไทย] [ONE2UP]

โหลดหนัง  Shadow (2018) จอมคนกระบี่เงา

เรื่องย่อ Shadow (2018) จอมคนกระบี่เงา

เตรียมต้อนรับความมันส์เเละวิจิตรงานสร้างของภาพยนตร์เรื่อง จอมคนกระบี่เงาจากงานกำกับของ จาง อี้ โหมว ผู้กำกับชาวจีนชื่อดังที่เหล่ายุทธจักรจอมยุทธต่างให้การคารวะ โดยเนื้อหาของเรื่องจะเกิดขึ้นในยุคสามก๊กช่วงเวลาที่สับสนวุ่นวายที่สุดช่วงหนึ่งในแผ่นดินจีน เป็นเรื่องราวเงา บุคคลไร้ตัวตน ผู้ถูกกักขังเลี้ยงดูอยู่ในคุกใต้ดินตั้งแต่อายุ 8 ขวบเพื่อให้เขาเป็นตัวตายตัวแทนของขุนพลใหญ่ แต่โชคชะตากลับพลิกผัน เมื่อเขาไม่ต้องการจมปลักอยู่ในความมืดมิด จึงลุกขึ้นสู้ เพื่อหวังทวงคืนสู่อิสรภาพ!!!

Complete name : Shadow.2018.4K.WEB-DL.AC3.x264.One2loadup.com.mkv
Format : Matroska
Format version : Version 4
File size : 5.37 GiB
Duration : 1 h 55 min
Overall bit rate : 6 646 kb/s
Movie name : Shadow.2018.4K.WEB-DL.AC3.x264.One2loadup.com
Encoded date : UTC 2010-02-22 21:41:31
Writing application : mkvmerge v5.9.0 (‘On The Loose’) built on Dec 9 2012 15:37:01
Writing library : libebml v1.3.0 + libmatroska v1.4.0

Video
ID : 1
Format : AVC
Format/Info : Advanced Video Codec
Format profile : [email protected]
Format settings : CABAC / 3 Ref Frames
Format settings, CABAC : Yes
Format settings, ReFrames : 3 frames
Codec ID : V_MPEG4/ISO/AVC
Duration : 1 h 55 min
Bit rate : 5 682 kb/s
Width : 3 840 pixels
Height : 1 576 pixels
Display aspect ratio : 2.40:1
Frame rate mode : Constant
Frame rate : 25.000 FPS
Color space : YUV
Chroma subsampling : 4:2:0
Bit depth : 8 bits
Scan type : Progressive
Bits/(Pixel*Frame) : 0.038
Stream size : 4.59 GiB (85%)
Title : Shadow.2018.4K.WEB-DL.AC3.x264.One2loadup.com
Language : Chinese
Default : Yes
Forced : No
Color range : Limited
Color primaries : BT.709
Transfer characteristics : BT.709
Matrix coefficients : BT.709

Audio #1
ID : 2
Format : AC-3
Format/Info : Audio Coding 3
Commercial name : Dolby Digital
Codec ID : A_AC3
Duration : 1 h 55 min
Bit rate mode : Constant
Bit rate : 448 kb/s
Channel(s) : 6 channels
Channel layout : L R C LFE Ls Rs
Sampling rate : 48.0 kHz
Frame rate : 31.250 FPS (1536 SPF)
Bit depth : 16 bits
Compression mode : Lossy
Delay relative to video : -80 ms
Stream size : 371 MiB (7%)
Title : Thai DVD Master
Language : Thai
Service kind : Complete Main
Default : Yes
Forced : Yes

Audio #2
ID : 3
Format : AC-3
Format/Info : Audio Coding 3
Commercial name : Dolby Digital
Codec ID : A_AC3
Duration : 1 h 55 min
Bit rate mode : Constant
Bit rate : 384 kb/s
Channel(s) : 2 channels
Channel layout : L R
Sampling rate : 44.1 kHz
Frame rate : 28.711 FPS (1536 SPF)
Bit depth : 16 bits
Compression mode : Lossy
Delay relative to video : -80 ms
Stream size : 318 MiB (6%)
Title : Chinese AC3
Language : Chinese
Service kind : Complete Main
Default : No
Forced : No

Text #1
ID : 4
Format : VobSub
Codec ID : S_VOBSUB
Codec ID/Info : Picture based subtitle format used on DVDs
Title : Thai 1080p
Language : Thai
Default : Yes
Forced : No

Text #2
ID : 5
Format : VobSub
Codec ID : S_VOBSUB
Codec ID/Info : Picture based subtitle format used on DVDs
Title : Thai 1080p High
Language : Thai
Default : No
Forced : No

Text #3
ID : 6
Format : PGS
Codec ID : S_HDMV/PGS
Codec ID/Info : Picture based subtitle format used on BDs/HD-DVDs
Title : Thai PGS
Language : Thai
Default : No
Forced : No

DOWNLOAD


PART01 |||| PART02 |||| PART03 |||| PART04 |||| PART05 |||| PART06

PART01 |||| PART02 |||| PART03 |||| PART04 |||| PART05 |||| PART06

PART01 |||| PART02 |||| PART03 |||| PART04 |||| PART05 |||| PART06

PART01 |||| PART02 |||| PART03 |||| PART04 |||| PART05 |||| PART06


Leave A Reply

Your email address will not be published.

%d bloggers like this: