เว็บโหลดหนัง HD MINI-HD SUPER-HQ Full-HD 1080p One2up VIP Master Zoom ซูม หนังใหม่ ออนไลน์ มาสเตอร์ ไทย จีน ฝรั่ง การ์ตูน

[จีน] Our Shining Days (2017) ดนตรีรัก ดนตรีฝัน [1080p] [พากย์จีน 2.0] [Soundtrack บรรยายไทย] [เสียงจีน + ซับไทยฝัง] [FILECLOUD]

0

Our Shining Days (2017) ดนตรีรัก ดนตรีฝัน

โหลดหนัง Our Shining Days (2017) ดนตรีรัก ดนตรีฝัน

เรื่องย่อ Our Shining Days (2017) ดนตรีรัก ดนตรีฝัน

เฉินจิง นักดนตรีหยางฉินแห่งโรงเรียนมัธยมการดนตรี เพิ่งจะถูกชายในดวงใจปฏิเสธ แถมยังพูดอีกว่า …หยางฉินคืออะไร! ไม่ได้การแล้ว เธอต้องพิสูจน์ตัวเองให้ได้ อย่างน้อยก็ให้เขารู้ซึ้งว่าหยางฉินนั้นไม่ธรรมดา..

Complete name : Our.Shining.Days.2017.1080p.Sub.Thai.One2loadup.com.mp4
Format : MPEG-4
Format profile : Base Media
Codec ID : isom (isom/iso2/avc1/mp41)
File size : 2.43 GiB
Duration : 1 h 42 min
Overall bit rate : 3 384 kb/s
Encoded date : UTC 2018-08-01 17:06:09
Tagged date : UTC 2018-08-01 17:06:09
Writing application : Lavf58.17.100

Video
ID : 1
Format : AVC
Format/Info : Advanced Video Codec
Format profile : [email protected]
Format settings : CABAC / 2 Ref Frames
Format settings, CABAC : Yes
Format settings, ReFrames : 2 frames
Codec ID : avc1
Codec ID/Info : Advanced Video Coding
Duration : 1 h 42 min
Bit rate : 3 000 kb/s
Width : 1 920 pixels
Height : 1 080 pixels
Display aspect ratio : 16:9
Frame rate mode : Constant
Frame rate : 24.417 FPS
Color space : YUV
Chroma subsampling : 4:2:0
Bit depth : 8 bits
Scan type : Progressive
Bits/(Pixel*Frame) : 0.059
Stream size : 2.15 GiB (89%)
Writing library : x264 core 155 r2901
Encoding settings : cabac=1 / ref=2 / deblock=1:0:0 / analyse=0x1:0x131 / me=hex / subme=7 / psy=1 / psy_rd=1.00:0.00 / mixed_ref=0 / me_range=16 / chroma_me=1 / trellis=1 / 8x8dct=0 / cqm=0 / deadzone=21,11 / fast_pskip=1 / chroma_qp_offset=-2 / threads=6 / lookahead_threads=1 / sliced_threads=0 / nr=0 / decimate=1 / interlaced=0 / bluray_compat=0 / constrained_intra=0 / bframes=3 / b_pyramid=0 / b_adapt=1 / b_bias=0 / direct=0 / weightb=1 / open_gop=0 / weightp=2 / keyint=244 / keyint_min=24 / scenecut=40 / intra_refresh=0 / rc_lookahead=40 / rc=abr / mbtree=1 / bitrate=3000 / ratetol=1.0 / qcomp=0.60 / qpmin=10 / qpmax=69 / qpstep=4 / vbv_maxrate=3500 / vbv_bufsize=24000 / nal_hrd=none / filler=0 / ip_ratio=1.40 / aq=3:1.00
Language : Chinese
Encoded date : UTC 2018-08-01 17:06:09
Tagged date : UTC 2018-08-01 17:06:09

Audio
ID : 2
Format : AC-3
Format/Info : Audio Coding 3
Codec ID : ac-3
Duration : 1 h 42 min
Duration_FirstFrame : 1 ms
Bit rate mode : Constant
Bit rate : 384 kb/s
Channel(s) : 2 channels
Channel positions : Front: L R
Sampling rate : 48.0 kHz
Frame rate : 31.250 FPS (1536 SPF)
Bit depth : 16 bits
Compression mode : Lossy
Stream size : 283 MiB (11%)
Language : Chinese
Service kind : Complete Main
Default : Yes
Alternate group : 1
Encoded date : UTC 2018-08-01 17:06:09
Tagged date : UTC 2018-08-01 17:06:09

DOWNLOAD


PART01 |||| PART02 |||| PART03

PART01 |||| PART02 |||| PART03

PART01 |||| PART02 |||| PART03

PART01 |||| PART02 |||| PART03


Leave A Reply

Your email address will not be published.

%d bloggers like this: