โหลดหนัง HD MINI-HD SUPER-HQ Full-HD 1080p VIP Master Zoom ซูม หนังใหม่ ออนไลน์ มาสเตอร์ ไทย จีน ฝรั่ง การ์ตูน

[จีน] Iceman: The Time Traveller (2018) ไอซ์แมน 2 [1080p] [พากย์ไทยโรง 2.0 + เสียงจีน 5.1] [บรรยายไทย + จีน + อังกฤษ] [Modified] [เสียงไทยโรง + ซับไทย] [OPENLOAD]

โหลดหนัง  Iceman: The Time Traveller (2018) ไอซ์แมน 2

เรื่องย่อ Iceman: The Time Traveller (2018) ไอซ์แมน 2

ในยุคราชวงศ์หมิง พี่น้องทั้ง 4 คน เติบโตมาในหมู่บ้านเต๋าหยวน ทั้ง 4 ได้ฝึกวิทยายุทธจนก้าวขึ้นมาเป็นราชองรักษ์ชั้นสูง แต่เมื่อเกิดเหตุให้ทั้งสี่แตกคอกัน ทำให้เกิดการต่อสู้ที่รุนแรงจนทำให้ปฐพีสั่นสะเทือนแ ละหิมะได้ถล่มลงมาทับร่างพวกเขา เวลาผ่านไปกว่า 400 ปี ทั้ง 4 คนได้ฟื้นคืนสติขึ้นมาและต้องมาห้ำหั่นกันอีกครั้ง เหอหยิง (ดอนนี่ เยน) ได้เรียนรู้ว่าเขาได้กลายเป็นกบฏต่อประเทศชาติจากการ บิดเบือนของประวัติศาสตร์ เขาจึงต้องพยายามออกตามให้วงล้อแห่งกาลเวลา เครื่องมือที่ว่ากันว่าสามารถเดินทางข้ามเวลาได้

เซา (หวังเป่าเฉียง) และ หนี่ฮู (คัง ยู) ยังคงฝังใจเรื่องการแตกคอ เขาจึงออกไล่ล่าเหอหยิง จนกระทั่งในที่สุดทั้ง 3 ได้ปะทะกันบนสะพานสิ่งหมา การต่อสู้นั้นรุนแรงและดุเดือดจนกลายเป็นที่กล่าวขวั ญไปทั่วประเทศ เหอหยิงได้รับบาดเจ็บและตกลงไปจากสะพานโดยที่ไม่รู้ช ะตากรรม แต่ในที่สุด หยวนหลง (เยิ่นต๊ะหัว) พี่ชายคนโตที่ฟื้นจากการแช่แข็งก่อนหน้าเหอหยิง 16 ปี ได้ใช้อำนาจทางกรมตำรวจตามหาเหอหยิงจนเจอ

เมื่อทั้งสองได้พบกัน หยวนหลง บอกกับ เหอหยิง ว่าหมู่บ้านเต๋าหยวนที่พวกเขาได้เติบโตมานั้นได้ถูกท ำลายอย่างย่อยยับ เหอหยิงเศร้าโศกกับอดีตที่ตนเองแก้ไขไม่ได้ เขาจึงร่วมมือกับ หยวนหลง ตามหาวงล้อแห่งกาลเวลาและใช้มันเพื่อกลับไปเปลี่ยนแป ลงประวัติศาสตร์ โดยที่เขาเองไม่รู้เลยว่านี่คือกับดักที่ หยวนหลง ได้วางแผนเอาไว้ !!!

Complete name : Iceman.The.Time.Traveller.2018.720p.BluRay.x264.One2loadup.com.mkv
Format : Matroska
Format version : Version 4
File size : 4.23 GiB
Duration : 1 h 27 min
Overall bit rate : 6 955 kb/s
Encoded date : UTC 2019-01-04 15:22:42
Writing application : mkvmerge v26.0.0 (‘In The Game’) 64-bit
Writing library : libebml v1.3.6 + libmatroska v1.4.9
Cover : Yes
Attachments : small_cover_land.jpg / cover.jpg / cover_land.jpg / small_cover.jpg

Video
ID : 1
Format : AVC
Format/Info : Advanced Video Codec
Format profile : [email protected]
Format settings : CABAC / 12 Ref Frames
Format settings, CABAC : Yes
Format settings, ReFrames : 12 frames
Codec ID : V_MPEG4/ISO/AVC
Duration : 1 h 27 min
Bit rate : 5 907 kb/s
Width : 1 280 pixels
Height : 534 pixels
Display aspect ratio : 2.40:1
Frame rate mode : Constant
Frame rate : 24.000 FPS
Color space : YUV
Chroma subsampling : 4:2:0
Bit depth : 8 bits
Scan type : Progressive
Bits/(Pixel*Frame) : 0.360
Stream size : 3.59 GiB (85%)
Writing library : x264 core 155 r2867+82 a249126 t_mod_Custom_2 [[email protected] X86_64]
Encoding settings : cabac=1 / ref=12 / deblock=1:-3:-3 / analyse=0x3:0x133 / me=umh / subme=10 / psy=1 / fade_compensate=0.00 / psy_rd=1.05:0.00 / mixed_ref=1 / me_range=32 / chroma_me=1 / trellis=2 / 8x8dct=1 / cqm=0 / deadzone=21,11 / fast_pskip=0 / chroma_qp_offset=-2 / threads=12 / lookahead_threads=2 / sliced_threads=0 / nr=0 / decimate=0 / interlaced=0 / bluray_compat=0 / constrained_intra=0 / fgo=0 / bframes=7 / b_pyramid=2 / b_adapt=2 / b_bias=0 / direct=3 / weightb=1 / open_gop=0 / weightp=2 / keyint=250 / keyint_min=24 / scenecut=40 / intra_refresh=0 / rc_lookahead=60 / rc=crf / mbtree=0 / crf=15.9000 / qcomp=0.60 / qpmin=0:0:0 / qpmax=69:69:69 / qpstep=4 / vbv_maxrate=62500 / vbv_bufsize=78125 / crf_max=0.0 / nal_hrd=none / filler=0 / ip_ratio=1.40 / pb_ratio=1.30 / aq=3:0.85 / aq-sensitivity=10.00 / aq-factor=1.00:1.00:1.00 / aq2=0 / aq3=0 / zones=828,908,crf=15/1037,1047,crf=14
Default : Yes
Forced : No

Audio #1
ID : 2
Format : AC-3
Format/Info : Audio Coding 3
Commercial name : Dolby Digital
Codec ID : A_AC3
Duration : 1 h 27 min
Bit rate mode : Constant
Bit rate : 640 kb/s
Channel(s) : 6 channels
Channel layout : L R C LFE Ls Rs
Sampling rate : 48.0 kHz
Frame rate : 31.250 FPS (1536 SPF)
Bit depth : 16 bits
Compression mode : Lossy
Stream size : 399 MiB (9%)
Title : Cantonese
Language : Chinese
Service kind : Complete Main
Default : Yes
Forced : No

Audio #2
ID : 7
Format : AAC LC
Format/Info : Advanced Audio Codec Low Complexity
Codec ID : A_AAC-2
Duration : 1 h 27 min
Bit rate : 405 kb/s
Channel(s) : 2 channels
Channel layout : L R
Sampling rate : 48.0 kHz
Frame rate : 46.875 FPS (1024 SPF)
Compression mode : Lossy
Stream size : 252 MiB (6%)
Language : Thai
Default : No
Forced : No

Text #1
ID : 3
Format : UTF-8
Codec ID : S_TEXT/UTF8
Codec ID/Info : UTF-8 Plain Text
Duration : 1 h 21 min
Bit rate : 44 b/s
Count of elements : 1013
Stream size : 26.6 KiB (0%)
Language : English
Default : Yes
Forced : Yes

Text #2
ID : 4
Format : UTF-8
Codec ID : S_TEXT/UTF8
Codec ID/Info : UTF-8 Plain Text
Duration : 1 h 21 min
Bit rate : 38 b/s
Count of elements : 1018
Stream size : 23.1 KiB (0%)
Title : CHS
Language : Chinese
Default : No
Forced : No

Text #3
ID : 5
Format : UTF-8
Codec ID : S_TEXT/UTF8
Codec ID/Info : UTF-8 Plain Text
Duration : 1 h 21 min
Bit rate : 38 b/s
Count of elements : 1018
Stream size : 23.1 KiB (0%)
Title : CHT
Language : Chinese
Default : No
Forced : No

Text #4
ID : 6
Format : ASS
Codec ID : S_TEXT/ASS
Codec ID/Info : Advanced Sub Station Alpha
Duration : 1 h 21 min
Bit rate : 156 b/s
Count of elements : 1018
Compression mode : Lossless
Stream size : 93.1 KiB (0%)
Language : Thai
Default : No
Forced : No

Menu
00:00:00.000 : en:00:00:00.000
00:08:11.542 : en:00:08:11.542
00:14:17.083 : en:00:14:17.083
00:22:23.167 : en:00:22:23.167
00:29:38.583 : en:00:29:38.583
00:37:04.750 : en:00:37:04.750
00:43:57.208 : en:00:43:57.208
00:50:31.708 : en:00:50:31.708
00:59:27.833 : en:00:59:27.833
01:04:20.125 : en:01:04:20.125
01:12:35.042 : en:01:12:35.042
01:19:37.458 : en:01:19:37.458

DOWNLOAD


PART01 |||| PART02 |||| PART03 |||| PART04 |||| PART05

PART01 |||| PART02 |||| PART03 |||| PART04 |||| PART05

PART01 |||| PART02 |||| PART03 |||| PART04 |||| PART05

PART01 |||| PART02 |||| PART03 |||| PART04 |||| PART05


Leave A Reply

Your email address will not be published.

%d bloggers like this: