[โปรแลนด์] Warsaw 1944 (2014) วอร์ซอ 1944 หลั่งเลือดพิทักษ์แผ่นดิน [1080p] [พากย์โปรแลนด์ 5.1] [Soundtrack บรรยายไทย] [เสียงโปรแลนด์ Pol + ซับไทย] [PANDAFILE]

3

โหลดหนัง Warsaw 1944 (2014) วอร์ซอ 1944 หลั่งเลือดพิทักษ์แผ่นดิน

Warsaw '44 | September 19, 2014 (Poland) Summary:
Countries: PolandLanguages: Polish, German

เรื่องย่อ Warsaw 1944 (2014) วอร์ซอ 1944 หลั่งเลือดพิทักษ์แผ่นดิน

ฤดูร้อนปี 1944 ณ กรุงวอร์ซอ ประเทศโปแลนด์ ความหวังในสงครามครั้งท้ายๆ ของสงครามโลกครั้งที่ 2 คราเมื่อครั้งนาซีเยอรมันรุกคืบเข้าบุกเมืองหลวงแห่ง นี้ การรบอย่างต่อเนื่องตลอด 2 เดือนเต็มเป็นหายนะครั้งรุนแรงสุดๆ พลเรือนถูกฆ่า ยิง ระเบิด พลีชีพไป 200,000 ศพ อีก 17,000 คนบาดเจ็บสาหัส นอกจากนี้ 90% ของสภาพบ้านเมืองถูกทำลายย่อยยับดั่งกองอิฐทะเลเพลิงก็ไม่ปานกลุ่ม Home Army ก่อการจลาจลเข้าต่อต้านเยอรมันอย่างที่สุด หนึ่งในขบวนการใต้ดินนาม Stefan ได้รู้จักและตกหลุมหลงรัก Ala พยาบาลสาว ในขณะที่ใจอีกดวงก็ยังฝังลึกอยู่ที่ Kama สหายสาวเพื่อนร่วมรบ เมื่อสงครามย่อยๆ สงบและการสูญสิ้นของทุกคน พร้อมสภาพบ้านเมืองพังพินาศ เขาจึงล่าถอยชีวิตและหัวใจไปยังเกาะที่สายน้ำ Weichsel ที่ซึ่งเขาเคยสอน Ala ว่ายน้ำ และที่นี่เขาก็ได้แต่หัวปักหัวปำคิดถึงแต่เธอท่ามกลา งความเหงาและสงบเงียบ เดียวดาย ภาพยนตร์ที่สร้างขึ้นจากเรื่องราวจริงของสงครามครั้ง นั้น และเพื่อเป็นการเฉลิมฉลองครบรอบ 70 ปีแห่งการจลาจลต่อต้านผู้รุกราน หลังสงครามผู้คน 700,000 คนถูกสั่งให้โยกย้ายออกไปจากวอร์ซอ คงไว้ซึ่งผู้บูรณาการเพียง 1,000 คน ปัจจุบันวอร์ซอมีพลเรือนผู้อยู่อาศัย 2 ล้านคน

Complete name: Warsaw.1944.2014.1080p.BluRay.AC3.SUBThai.x264.One2loadup.com.mkv
Format : Matroska
Format version : Version 4 / Version 2
File size : 2.94 GiB
Duration : 2 h 6 min
Overall bit rate : 3 319 kb/s
Movie name : Warsaw.1944.2014.1080p.BluRay.AC3.SUBThai.x264.One2loadup.com
Encoded date : UTC 2017-12-28 02:30:05
Writing application : mkvmerge v18.0.0 (‘Apricity’) 64-bit
Writing library : libebml v1.3.5 + libmatroska v1.4.8

Video
ID : 1
Format : AVC
Format/Info : Advanced Video Codec
Format profile : [email protected]
Format settings, CABAC : Yes
Format settings, RefFrames : 4 frames
Codec ID : V_MPEG4/ISO/AVC
Duration : 2 h 6 min
Bit rate : 2 632 kb/s
Width : 1 920 pixels
Height : 808 pixels
Display aspect ratio : 2.40:1
Frame rate mode : Constant
Frame rate : 24.000 FPS
Color space : YUV
Chroma subsampling : 4:2:0
Bit depth : 8 bits
Scan type : Progressive
Bits/(Pixel*Frame) : 0.071
Stream size : 2.33 GiB (79%)
Title : Warsaw.1944.2014.1080p.BluRay.AC3.SUBThai.x264.One2loadup.com
Writing library : x264 core 142 r2431 ac76440
Encoding settings : cabac=1 / ref=4 / deblock=1:0:0 / analyse=0x3:0x113 / me=umh / subme=10 / psy=1 / psy_rd=1.00:0.00 / mixed_ref=1 / me_range=32 / chroma_me=1 / trellis=2 / 8x8dct=1 / cqm=0 / deadzone=21,11 / fast_pskip=0 / chroma_qp_offset=1 / threads=16 / lookahead_threads=1 / sliced_threads=0 / nr=0 / decimate=1 / interlaced=0 / bluray_compat=0 / constrained_intra=0 / bframes=8 / b_pyramid=2 / b_adapt=1 / b_bias=0 / direct=3 / weightb=1 / open_gop=0 / weightp=2 / keyint=240 / keyint_min=24 / scenecut=40 / intra_refresh=0 / rc_lookahead=50 / rc=2pass / mbtree=1 / bitrate=2632 / ratetol=1.0 / qcomp=0.60 / qpmin=10 / qpmax=51 / qpstep=4 / cplxblur=20.0 / qblur=0.5 / vbv_maxrate=62500 / vbv_bufsize=78125 / nal_hrd=none / filler=0 / ip_ratio=1.40 / aq=1:1.00
Default : Yes
Forced : No

Audio
ID : 2
Format : AC-3
Format/Info : Audio Coding 3
Format settings, Endianness : Big
Codec ID : A_AC3
Duration : 2 h 6 min
Bit rate mode : Constant
Bit rate : 640 kb/s
Channel(s) : 6 channels
Channel positions : Front: L C R, Side: L R, LFE
Sampling rate : 48.0 kHz
Frame rate : 31.250 FPS (1536 SPF)
Bit depth : 16 bits
Compression mode : Lossy
Stream size : 580 MiB (19%)
Title : AC3 5.1 640kbps
Language : Polish
Service kind : Complete Main
Default : Yes
Forced : No

Text #1
ID : 3
Format : VobSub
Muxing mode : zlib
Codec ID : S_VOBSUB
Codec ID/Info : Picture based subtitle format used on DVDs
Duration : 1 h 57 min
Bit rate : 1 698 b/s
Count of elements : 935
Stream size : 1.43 MiB (0%)
Title : Vobsub 480p
Language : Thai
Default : No
Forced : No

Text #2
ID : 4
Format : VobSub
Muxing mode : zlib
Codec ID : S_VOBSUB
Codec ID/Info : Picture based subtitle format used on DVDs
Duration : 1 h 57 min
Bit rate : 5 528 b/s
Count of elements : 935
Stream size : 4.65 MiB (0%)
Title : Vobsub 1080p low
Language : Thai
Default : No
Forced : No

Text #3
ID : 5
Format : VobSub
Muxing mode : zlib
Codec ID : S_VOBSUB
Codec ID/Info : Picture based subtitle format used on DVDs
Duration : 1 h 57 min
Bit rate : 5 894 b/s
Count of elements : 935
Stream size : 4.95 MiB (0%)
Title : Vobsub 1080p low bold
Language : Thai
Default : No
Forced : No

Text #4
ID : 6
Format : VobSub
Muxing mode : zlib
Codec ID : S_VOBSUB
Codec ID/Info : Picture based subtitle format used on DVDs
Duration : 1 h 57 min
Bit rate : 5 877 b/s
Count of elements : 935
Stream size : 4.94 MiB (0%)
Title : Vobsub 1080p bold yellow
Language : Thai
Default : No
Forced : No

Text #5
ID : 7
Format : PGS
Muxing mode : zlib
Codec ID : S_HDMV/PGS
Codec ID/Info : Picture based subtitle format used on BDs/HD-DVDs
Duration : 1 h 57 min
Bit rate : 26.1 kb/s
Count of elements : 1870
Stream size : 21.9 MiB (1%)
Title : PGS low
Language : Thai
Default : No
Forced : No

Text #6
ID : 8
Format : PGS
Muxing mode : zlib
Codec ID : S_HDMV/PGS
Codec ID/Info : Picture based subtitle format used on BDs/HD-DVDs
Duration : 1 h 57 min
Bit rate : 26.0 kb/s
Count of elements : 1870
Stream size : 21.8 MiB (1%)
Title : PGS low bold
Language : Thai
Default : No
Forced : No

Text #7
ID : 9
Format : PGS
Muxing mode : zlib
Codec ID : S_HDMV/PGS
Codec ID/Info : Picture based subtitle format used on BDs/HD-DVDs
Duration : 1 h 57 min
Bit rate : 26.0 kb/s
Count of elements : 1870
Stream size : 21.8 MiB (1%)
Title : PGS bold yellow
Language : Thai
Default : No
Forced : No

Text #8
ID : 10
Format : UTF-8
Codec ID : S_TEXT/UTF8
Codec ID/Info : UTF-8 Plain Text
Duration : 1 h 52 min
Bit rate : 34 b/s
Count of elements : 933
Stream size : 28.5 KiB (0%)
Title : Subrip
Language : English
Default : No
Forced : No

DOWNLOAD


PART01 |||| PART02 |||| PART03

PAR01 |||| PART02 |||| PART03

PART01 |||| PART02 |||| PART03

PART01 |||| PART02 |||| PART03

PART01 |||| PART02 |||| PART03


3 Comments
  1. Boy says

    ไฟล์เสียแล้วครับ

    1. Admin
      Admin says

      แก้ไขเรียบร้อยฮ๊ะ

      1. Boy says

        Thank you

Leave A Reply

อีเมล์ของคุณจะไม่แสดงให้เห็น Your email address will not be published.

%d bloggers like this: