[Mini-HD] The Fast and the Furious (2001) เร็วแรงทะลุนรก ภาค 1 [1080P] [พากย์ไทย DTS + เสียงอังกฤษ DTS] [บรรยายไทย + อังกฤษ] [เสียงไทย + ซับไทย] [PANDAFILE]

8

The Fast and the Furious (2001)

โหลดหนัง The Fast and the Furious (2001) เร็วแรงทะลุนรก 1

The Fast and the Furious | June 22, 2001 (United States) Summary: Los Angeles police officer Brian O'Conner must decide where his loyalty really lies when he becomes enamored with the street racing world he has been sent undercover to destroy.
Countries: United States, GermanyLanguages: English, Spanish

เรื่องย่อ The Fast and the Furious (2001) เร็วแรงทะลุนรก 1

โดมินิค โทเร็ทโต (วิน ดีเซล) ขับรถบนถนนแอลเอ 1 Fast And The Furious ราวกับว่าเขาเป็นจ้าวถนน พร้อมด้วยพลพรรคทีมแข่งรถของเขา เขาใช้เวลาแต่ละวัน ปรับแต่งเครื่องยนต์รถแข่งให้มีสมรรถนะสูง เขาให้ความสำคัญกับหัวฉีดน้ำมัน ที่ควบคุมด้วยคอมพิวเตอร์ มากกว่ารูปลักษณ์และ.รุ่นของรถ ซึ่งทำให้รถพุ่งแรงราวกับบินได้ ในยามค่ำคืน โดมินิคจะขับจรวดบนดินของเขา ไปแข่งในสนามท้าดวล รถคันนี้ถ้าจะแข่งกับใคร เดิมพันแต่ละครั้งสูงถึง 10,000 เหรียญทีเดียวที่นั่น สนามแข่งขันเปรียบเสมือนโรงละครบนท้องถนน เป็นชนกลุ่มหนึ่ง และเป็นสนามท้าประลอง ที่ทุกคนจะเติมพลังขับเคลื่อน เร็ว..แรงทะลุนรก ด้วยฮอร์โมนอะดรีนาลิน เซ็กซ์ และความเร็วที่ไร้ขีดจำกัด ท่ามกลางกองเชียร์ โดมินิคโดดเด่นในลู่แข่ง ดังเช่นร็อคสตาร์คนหนึ่ง

Complete name : [MINI-HD]_The.Fast.and.the.Furious.2001.BluRay.1080p.DTS.x264.One2loadup.com.mkv
Format : Matroska
Format version : Version 4 / Version 2
File size : 4.30 GiB
Duration : 1 h 46 min
Overall bit rate mode : Variable
Overall bit rate : 5 763 kb/s
Movie name : [MINI-HD]_The.Fast.and.the.Furious.2001.BluRay.1080p.DTS.x264.One2loadup.com
Encoded date : UTC 2015-08-05 04:53:14
Writing application : mkvmerge v6.2.0 (‘Promised Land’) built on Apr 28 2013 12:22:01
Writing library : libebml v1.3.0 + libmatroska v1.4.0

Video
ID : 1
Format : AVC
Format/Info : Advanced Video Codec
Format profile : [email protected]
Format settings, CABAC : Yes
Format settings, RefFrames : 5 frames
Codec ID : V_MPEG4/ISO/AVC
Duration : 1 h 46 min
Bit rate mode : Variable
Bit rate : 4 150 kb/s
Maximum bit rate : 100.0 Mb/s
Width : 1 920 pixels
Height : 800 pixels
Display aspect ratio : 2.40:1
Frame rate mode : Constant
Frame rate : 23.976 (23976/1000) FPS
Color space : YUV
Chroma subsampling : 4:2:0
Bit depth : 8 bits
Scan type : Progressive
Bits/(Pixel*Frame) : 0.113
Stream size : 3.08 GiB (72%)
Title : [MINI-HD]_The.Fast.and.the.Furious.2001.BluRay.1080p.DTS.x264.One2loadup.com
Writing library : x264 core 130 r2273 b3065e6
Encoding settings : cabac=1 / ref=5 / deblock=1:0:0 / analyse=0x3:0x133 / me=umh / subme=11 / psy=1 / psy_rd=1.00:0.15 / mixed_ref=1 / me_range=64 / chroma_me=1 / trellis=2 / 8x8dct=1 / cqm=0 / deadzone=21,11 / fast_pskip=1 / chroma_qp_offset=-3 / threads=16 / lookahead_threads=1 / sliced_threads=0 / nr=0 / decimate=1 / interlaced=0 / bluray_compat=0 / constrained_intra=0 / bframes=5 / b_pyramid=2 / b_adapt=2 / b_bias=0 / direct=3 / weightb=1 / open_gop=0 / weightp=2 / keyint=250 / keyint_min=23 / scenecut=40 / intra_refresh=0 / rc_lookahead=100 / rc=2pass / mbtree=1 / bitrate=4150 / ratetol=1.0 / qcomp=0.60 / qpmin=0 / qpmax=69 / qpstep=4 / cplxblur=20.0 / qblur=0.5 / vbv_maxrate=99999 / vbv_bufsize=99999 / nal_hrd=vbr / ip_ratio=1.40 / aq=1:1.00
Language : English
Default : Yes
Forced : No

Audio #1
ID : 2
Format : DTS
Format/Info : Digital Theater Systems
Mode : 16
Format settings, Endianness : Big
Codec ID : A_DTS
Duration : 1 h 46 min
Bit rate mode : Constant
Bit rate : 768 kb/s
Channel(s) : 6 channels
Channel positions : Front: L C R, Side: L R, LFE
Sampling rate : 48.0 kHz
Frame rate : 93.750 FPS (512 SPF)
Bit depth : 24 bits
Compression mode : Lossy
Stream size : 587 MiB (13%)
Title : [THAI DTS FROM BLU-RAY MASTER]
Language : Thai
Default : Yes
Forced : No

Audio #2
ID : 3
Format : DTS
Format/Info : Digital Theater Systems
Mode : 16
Format settings, Endianness : Big
Codec ID : A_DTS
Duration : 1 h 46 min
Bit rate mode : Constant
Bit rate : 755 kb/s
Channel(s) : 6 channels
Channel positions : Front: L C R, Side: L R, LFE
Sampling rate : 48.0 kHz
Frame rate : 93.750 FPS (512 SPF)
Bit depth : 24 bits
Compression mode : Lossy
Stream size : 577 MiB (13%)
Title : eng dts
Language : English
Default : No
Forced : No

Text #1
ID : 4
Format : VobSub
Codec ID : S_VOBSUB
Codec ID/Info : Picture based subtitle format used on DVDs
Title : [SUB THAI 480P FROM BLU-RAY]
Language : Thai
Default : No
Forced : No

Text #2
ID : 5
Format : VobSub
Codec ID : S_VOBSUB
Codec ID/Info : Picture based subtitle format used on DVDs
Title : [SUB THAI 1080P FROM BLU-RAY]
Language : Thai
Default : No
Forced : No

Text #3
ID : 6
Format : PGS
Codec ID : S_HDMV/PGS
Codec ID/Info : Picture based subtitle format used on BDs/HD-DVDs
Title : [SUB THAI PGS FROM BLU-RAY]
Language : Thai
Default : No
Forced : No

Text #4
ID : 7
Format : PGS
Codec ID : S_HDMV/PGS
Codec ID/Info : Picture based subtitle format used on BDs/HD-DVDs
Title : [SUB THAI PGS FROM BLU-RAY] UNDER
Language : Thai
Default : No
Forced : No

Text #5
ID : 8
Format : PGS
Codec ID : S_HDMV/PGS
Codec ID/Info : Picture based subtitle format used on BDs/HD-DVDs
Title : [SUB ENG PGS FROM BLU-RAY]
Language : English
Default : No
Forced : No

Text #6
ID : 9
Format : VobSub
Codec ID : S_VOBSUB
Codec ID/Info : Picture based subtitle format used on DVDs
Title : [SUB ENG 480P FROM BLU-RAY]
Language : English
Default : No
Forced : No

DOWNLOAD


PART01 |||| PART02 |||| PART03 |||| PART04 |||| PART05

PART01 |||| PART02 |||| PART03 |||| PART04 |||| PART05

PART01 |||| PART02 |||| PART03 |||| PART04 |||| PART05

PART01 |||| PART02 |||| PART03 |||| PART04 |||| PART05

PART01 |||| PART02 |||| PART03 |||| PART04 |||| PART05


8 Comments
  1. Aruri Panpan
    Aruri Panpan says

    vip โหลดไม่ได้ครับ
    ขอบคุณครับ

    1. Admin
      Admin says

      แก้ไขเรียบร้อยแล้วฮ๊ะ

  2. แยมยี้ปั้ง says

    ขอลิ้งใหม่หน่อยครับ โหลดไม่ได้เลย

    1. Admin
      Admin says

      แก้ไขเรียบร้อยฮ๊ะ

  3. Suchittra But-Armart
    Suchittra But-Armart says

    ไฟล์ที่โหลดมา ไม่มีเสียงค่ะ
    แก้ไขยังงัยคะ

    1. Admin
      Admin says

      แนะนำให้ใช้โปรแกรม VLC ในการเปิดดูฮ๊ะ

  4. Diamondesc says

    ไฟล์โหลดไม่ได้ครับ

    1. Admin
      Admin says

      แก้ไขเรียบร้อยฮ๊ะ

Leave A Reply

อีเมล์ของคุณจะไม่แสดงให้เห็น Your email address will not be published.

%d bloggers like this: