[MNI Super-HQ] The Protégé (2021) [1080p] [AMAZON] [พากย์อิตาลี 5.1 + เสียงอังกฤษ 5.1] [Soundtrack บรรยายไทย + อังกฤษ] [เสียงอิตาลี่ + ซับไทย] [USERLOAD]

0

โหลดหนัง The Protege (2021)

The Protege 109min | Action, Crime, Thriller | August 20, 2021 (United States) Summary: Rescued as a child by the legendary assassin Moody, Anna is the world's most skilled contract killer. However, when Moody is brutally killed, she vows revenge for the man who taught her ever... Read all
Countries: United States, United KingdomLanguages: English

เรื่องย่อ The Protege (2021)

มูดี้นักฆ่าในตำนาน (ซามูเอล แอล. แจ็คสัน) ได้ช่วยเหลือ แอนนา (แม็กกี้ คิว) ตั้งแต่ยังเป็นเด็ก และเขาได้ฝึกฝนให้เธอนั้นกลายเป็นนักฆ่ารับจ้างที่ฝีมือดีที่สุดในโลก แต่เมื่อมูดี้ซึ่งเป็นเหมือนพ่อของเธอถูกฆ่าอย่างโหด เหี้ยม แอนนาจึงสาบานว่าจะแก้แค้นคนที่สั่งการในครั้งนี้ให้จงได้

Complete name : [MINI Super-HQ]_The.Protege.2021.1080p.AMZN.WEB-DL.EAC3.x264.Subthai.One2loadup.com.mkv
Format : Matroska
Format version : Version 4
File size : 4.26 GiB
Duration : 1 h 44 min
Overall bit rate : 5 858 kb/s
Movie name : [MINI Super-HQ]_The.Protege.2021.1080p.AMZN.WEB-DL.EAC3.x264.Subthai.One2loadup.com
Encoded date : UTC 2021-08-28 13:09:58
Writing application : mkvmerge v60.0.0 (‘Are We Copies?’) 64-bit
Writing library : libebml v1.4.2 + libmatroska v1.6.4

Video
ID : 1
Format : AVC
Format/Info : Advanced Video Codec
Format profile : [email protected]
Format settings : CABAC / 3 Ref Frames
Format settings, CABAC : Yes
Format settings, Reference : 3 frames
Codec ID : V_MPEG4/ISO/AVC
Duration : 1 h 44 min
Bit rate : 4 561 kb/s
Width : 1 920 pixels
Height : 798 pixels
Display aspect ratio : 2.40:1
Frame rate mode : Constant
Frame rate : 25.000 FPS
Color space : YUV
Chroma subsampling : 4:2:0
Bit depth : 8 bits
Scan type : Progressive
Bits/(Pixel*Frame) : 0.119
Stream size : 3.32 GiB (78%)
Title : [MINI Super-HQ]_The.Protege.2021.1080p.AMZN.WEB-DL.EAC3.x264.Subthai.One2loadup.com
Language : Italian
Default : Yes
Forced : No
Color range : Limited
Color primaries : BT.709
Transfer characteristics : BT.709
Matrix coefficients : BT.709

Audio #1
ID : 2
Format : E-AC-3
Format/Info : Enhanced AC-3
Commercial name : Dolby Digital Plus
Codec ID : A_EAC3
Duration : 1 h 44 min
Bit rate mode : Constant
Bit rate : 640 kb/s
Channel(s) : 6 channels
Channel layout : L R C LFE Ls Rs
Sampling rate : 48.0 kHz
Frame rate : 31.250 FPS (1536 SPF)
Compression mode : Lossy
Stream size : 477 MiB (11%)
Title : E-AC3 Italian
Language : Italian
Service kind : Complete Main
Default : Yes
Forced : No

Audio #2
ID : 3
Format : E-AC-3
Format/Info : Enhanced AC-3
Commercial name : Dolby Digital Plus
Codec ID : A_EAC3
Duration : 1 h 44 min
Bit rate mode : Constant
Bit rate : 640 kb/s
Channel(s) : 6 channels
Channel layout : L R C LFE Ls Rs
Sampling rate : 48.0 kHz
Frame rate : 31.250 FPS (1536 SPF)
Compression mode : Lossy
Stream size : 477 MiB (11%)
Title : E-AC3 English
Language : English
Service kind : Complete Main
Default : No
Forced : No

Text #1
ID : 4
Format : VobSub
Muxing mode : zlib
Codec ID : S_VOBSUB
Codec ID/Info : Picture based subtitle format used on DVDs
Duration : 1 h 35 min
Bit rate : 8 243 b/s
Count of elements : 808
Stream size : 5.65 MiB (0%)
Title : Sub Thai 1080p
Language : Thai
Default : No
Forced : No

Text #2
ID : 5
Format : UTF-8
Codec ID : S_TEXT/UTF8
Codec ID/Info : UTF-8 Plain Text
Duration : 1 h 35 min
Bit rate : 85 b/s
Count of elements : 808
Stream size : 59.8 KiB (0%)
Title : Sub Thai SRT
Language : Thai
Default : No
Forced : No

Text #3
ID : 6
Format : PGS
Muxing mode : zlib
Codec ID : S_HDMV/PGS
Codec ID/Info : Picture based subtitle format used on BDs/HD-DVDs
Duration : 1 h 35 min
Bit rate : 23.3 kb/s
Count of elements : 1616
Stream size : 16.0 MiB (0%)
Title : Sub Thai PGS
Language : Thai
Default : Yes
Forced : No

Text #4
ID : 7
Format : UTF-8
Codec ID : S_TEXT/UTF8
Codec ID/Info : UTF-8 Plain Text
Duration : 1 h 33 min
Bit rate : 38 b/s
Count of elements : 845
Stream size : 26.2 KiB (0%)
Title : Sub English SRT
Language : English
Default : No
Forced : No

DOWNLOAD


PART01 |||| PART02 |||| PART03 |||| PART04 |||| PART05

PART01 |||| PART02 |||| PART03 |||| PART04 |||| PART05

PART01 |||| PART02 |||| PART03 |||| PART04 |||| PART05

PART01 |||| PART02 |||| PART03 |||| PART04 |||| PART05

PART01 |||| PART02 |||| PART03 |||| PART04 |||| PART05


Leave A Reply

อีเมล์ของคุณจะไม่แสดงให้เห็น Your email address will not be published.

%d bloggers like this: