[MINI Super-HQ] X-Men: Days of Future Past (2014) X-เม็น สงครามวันพิฆาตกู้อนาคต [1080p] [พากย์ไทย 5.1 + เสียงอังกฤษ DTS] [บรรยายไทย + อังกฤษ] [เสียงไทย + ซับไทย] [OPENLOAD]

0

X-Men: Days of Future Past (2014)

โหลดหนัง X-Men: Days of Future Past (2014) X-เม็น สงครามวันพิฆาตกู้อนาคต

X-Men: Days of Future Past (2014) 2h 12min | Action, Adventure, Sci-Fi | 22 May 2014 (Netherlands) Summary: The X-Men send Wolverine to the past in a desperate effort to change history and prevent an event that results in doom for both humans and mutants.
Countries: USA, UK, CanadaLanguages: English, Vietnamese, French

เรื่องย่อ X-Men: Days of Future Past (2014) X-เม็น สงครามวันพิฆาตกู้อนาคต

การรวมตัวต่อสู้กับสงครามครั้งยิ่งใหญ่ของเหล่าเอ็กซ์-เม็น เพื่อหาทางเอาตัวรอดจากสายพันธุ์ที่มีอายุข้ามสองยุคสมัยในภาพยนตร์เรื่อง X-MEN: DAYS OF FUTURE PAST เหล่าตัวละครโปรดจากภาพยนตร์ไตรภาค “X-Men”  ต้นฉบับกลับมาผนึกกำลังร่วมกับตัวเองในอดีตจาก “X-Men: First Class” ในการต่อสู้ครั้งยิ่งใหญ่ที่ต้องเปลี่ยนแปลงอดีตเพื่อรักษาอนาคตของเราไว้!!!

Complete name : [MINI Super-HQ]_X-Men.Days.of.Future.Past.2014.1080p.BrRip.DTS.x264.One2loadup.com.mkv
Format : Matroska
Format version : Version 4
File size : 4.38 GiB
Duration : 2 h 11 min
Overall bit rate : 4 760 kb/s
Movie name : [MINI Super-HQ]_X-Men.Days.of.Future.Past.2014.1080p.BrRip.DTS.x264.One2loadup.com
Encoded date : UTC 2010-02-22 21:41:31
Writing application : mkvmerge v5.9.0 (‘On The Loose’) built on Dec 9 2012 15:37:01
Writing library : libebml v1.3.0 + libmatroska v1.4.0

Video
ID : 1
Format : AVC
Format/Info : Advanced Video Codec
Format profile : [email protected]
Format settings : CABAC / 6 Ref Frames
Format settings, CABAC : Yes
Format settings, ReFrames : 6 frames
Codec ID : V_MPEG4/ISO/AVC
Duration : 2 h 11 min
Bit rate : 3 355 kb/s
Width : 1 920 pixels
Height : 800 pixels
Display aspect ratio : 2.40:1
Frame rate mode : Constant
Frame rate : 23.976 (23976/1000) FPS
Color space : YUV
Chroma subsampling : 4:2:0
Bit depth : 8 bits
Scan type : Progressive
Bits/(Pixel*Frame) : 0.091
Stream size : 3.18 GiB (73%)
Title : [MINI Super-HQ]_X-Men.Days.of.Future.Past.2014.1080p.BrRip.DTS.x264.One2loadup.com
Writing library : x264 core 130 r2273 b3065e6
Encoding settings : cabac=1 / ref=6 / deblock=1:0:0 / analyse=0x3:0x113 / me=umh / subme=11 / psy=1 / psy_rd=1.00:0.00 / mixed_ref=1 / me_range=64 / chroma_me=1 / trellis=2 / 8x8dct=1 / cqm=0 / deadzone=21,11 / fast_pskip=1 / chroma_qp_offset=-2 / threads=12 / lookahead_threads=1 / sliced_threads=0 / nr=0 / decimate=1 / interlaced=0 / bluray_compat=0 / constrained_intra=0 / bframes=5 / b_pyramid=2 / b_adapt=2 / b_bias=0 / direct=1 / weightb=1 / open_gop=0 / weightp=2 / keyint=240 / keyint_min=24 / scenecut=40 / intra_refresh=0 / rc_lookahead=40 / rc=2pass / mbtree=1 / bitrate=3355 / ratetol=1.0 / qcomp=0.60 / qpmin=0 / qpmax=69 / qpstep=4 / cplxblur=20.0 / qblur=0.5 / ip_ratio=1.40 / aq=1:1.00
Language : English
Default : Yes
Forced : No
Color range : Limited
Color primaries : BT.709
Transfer characteristics : BT.709
Matrix coefficients : BT.709

Audio #1
ID : 2
Format : AC-3
Format/Info : Audio Coding 3
Commercial name : Dolby Digital
Codec ID : A_AC3
Duration : 2 h 11 min
Bit rate mode : Constant
Bit rate : 448 kb/s
Channel(s) : 6 channels
Channel layout : L R C LFE Ls Rs
Sampling rate : 48.0 kHz
Frame rate : 31.250 FPS (1536 SPF)
Bit depth : 16 bits
Compression mode : Lossy
Stream size : 422 MiB (9%)
Title : Thai BluRay Master
Language : Thai
Service kind : Complete Main
Default : Yes
Forced : Yes

Audio #2
ID : 3
Format : DTS
Format/Info : Digital Theater Systems
Codec ID : A_DTS
Duration : 2 h 11 min
Bit rate mode : Constant
Bit rate : 755 kb/s
Channel(s) : 6 channels
Channel layout : C L R Ls Rs LFE
Sampling rate : 48.0 kHz
Frame rate : 93.750 FPS (512 SPF)
Bit depth : 24 bits
Compression mode : Lossy
Stream size : 710 MiB (16%)
Title : English DTS
Language : English
Default : No
Forced : No

Text #1
ID : 4
Format : VobSub
Codec ID : S_VOBSUB
Codec ID/Info : Picture based subtitle format used on DVDs
Title : Thai 480p
Language : Thai
Default : No
Forced : No

Text #2
ID : 5
Format : VobSub
Codec ID : S_VOBSUB
Codec ID/Info : Picture based subtitle format used on DVDs
Title : Thai 720p
Language : Thai
Default : No
Forced : No

Text #3
ID : 6
Format : VobSub
Codec ID : S_VOBSUB
Codec ID/Info : Picture based subtitle format used on DVDs
Title : Thai 1080p BluRay Master
Language : Thai
Default : Yes
Forced : Yes

Text #4
ID : 7
Format : VobSub
Codec ID : S_VOBSUB
Codec ID/Info : Picture based subtitle format used on DVDs
Title : Thai 1080p Freesia
Language : Thai
Default : No
Forced : No

Text #5
ID : 8
Format : VobSub
Codec ID : S_VOBSUB
Codec ID/Info : Picture based subtitle format used on DVDs
Title : Thai 1080p Yellow
Language : Thai
Default : No
Forced : No

Text #6
ID : 9
Format : VobSub
Codec ID : S_VOBSUB
Codec ID/Info : Picture based subtitle format used on DVDs
Title : Thai 1080p Out
Language : Thai
Default : No
Forced : No

Text #7
ID : 10
Format : VobSub
Codec ID : S_VOBSUB
Codec ID/Info : Picture based subtitle format used on DVDs
Title : Thai 1080p BIG
Language : Thai
Default : No
Forced : No

Text #8
ID : 11
Format : VobSub
Codec ID : S_VOBSUB
Codec ID/Info : Picture based subtitle format used on DVDs
Title : Thai 1080p Out [BIG]
Language : Thai
Default : No
Forced : No

Text #9
ID : 12
Format : PGS
Codec ID : S_HDMV/PGS
Codec ID/Info : Picture based subtitle format used on BDs/HD-DVDs
Title : Thai PGS BluRay Master
Language : Thai
Default : No
Forced : No

Text #10
ID : 13
Format : PGS
Codec ID : S_HDMV/PGS
Codec ID/Info : Picture based subtitle format used on BDs/HD-DVDs
Title : Thai PGS Freesia
Language : Thai
Default : No
Forced : No

Text #11
ID : 14
Format : PGS
Codec ID : S_HDMV/PGS
Codec ID/Info : Picture based subtitle format used on BDs/HD-DVDs
Title : Thai PGS Yellow
Language : Thai
Default : No
Forced : No

Text #12
ID : 15
Format : PGS
Codec ID : S_HDMV/PGS
Codec ID/Info : Picture based subtitle format used on BDs/HD-DVDs
Title : Thai PGS Light Blue
Language : Thai
Default : No
Forced : No

Text #13
ID : 16
Format : PGS
Codec ID : S_HDMV/PGS
Codec ID/Info : Picture based subtitle format used on BDs/HD-DVDs
Title : Thai PGS Out
Language : Thai
Default : No
Forced : No

Text #14
ID : 17
Format : VobSub
Codec ID : S_VOBSUB
Codec ID/Info : Picture based subtitle format used on DVDs
Title : English
Language : Thai
Default : No
Forced : No

Menu
00:00:00.000 : en:Chapter 1
00:03:33.421 : en:Chapter 2
00:08:00.771 : en:Chapter 3
00:10:28.711 : en:Chapter 4
00:13:58.128 : en:Chapter 5
00:17:02.104 : en:Chapter 6
00:20:16.173 : en:Chapter 7
00:22:11.413 : en:Chapter 8
00:26:37.971 : en:Chapter 9
00:30:32.121 : en:Chapter 10
00:34:29.859 : en:Chapter 11
00:36:01.075 : en:Chapter 12
00:38:18.170 : en:Chapter 13
00:40:37.184 : en:Chapter 14
00:45:53.876 : en:Chapter 15
00:48:53.930 : en:Chapter 16
00:51:58.240 : en:Chapter 17
00:54:43.196 : en:Chapter 18
00:57:51.509 : en:Chapter 19
01:00:48.269 : en:Chapter 20
01:03:26.677 : en:Chapter 21
01:07:09.650 : en:Chapter 22
01:09:43.679 : en:Chapter 23
01:13:11.553 : en:Chapter 24
01:15:31.944 : en:Chapter 25
01:17:27.809 : en:Chapter 26
01:19:30.182 : en:Chapter 27
01:24:50.794 : en:Chapter 28
01:26:58.338 : en:Chapter 29
01:31:04.333 : en:Chapter 30
01:34:03.763 : en:Chapter 31
01:37:33.264 : en:Chapter 32
01:41:54.900 : en:Chapter 33
01:44:53.078 : en:Chapter 34
01:47:19.891 : en:Chapter 35
01:51:29.849 : en:Chapter 36
01:56:42.829 : en:Chapter 37
02:00:12.496 : en:Chapter 38
02:02:35.056 : en:Chapter 39
02:10:31.990 : en:Chapter 40

DOWNLOAD


PART01 |||| PART02 |||| PART03 |||| PART04 |||| PART05

PART01 |||| PART02 |||| PART03 |||| PART04 |||| PART05

PART01 |||| PART02 |||| PART03 |||| PART04 |||| PART05

PART01 |||| PART02 |||| PART03 |||| PART04 |||| PART05


Leave A Reply

Your email address will not be published.