[MINI Super-HQ] Weathering with You (2019) ฤดูฝัน ฉันมีเธอ [1080p] [พากย์ไทย 5.1 + เสียงญี่ปุ่น DTS] [บรรยายไทย + อังกฤษ] [เสียงไทย + ซับไทย] [PANDAFILE]

0

โหลดหนัง Weathering with You (2019) ฤดูฝัน ฉันมีเธอ

Weathering with You - Das Mädchen, das die Sonne berührte (2019) 1h 52min | Animation, Drama, Family | 16 January 2020 (Germany) Summary: A high-school boy who has run away to Tokyo befriends a girl who appears to be able to manipulate the weather.
Countries: JapanLanguages: Japanese, English

เรื่องย่อ Weathering with You (2019) ฤดูฝัน ฉันมีเธอ

เมื่อเด็กหนุ่มมัธยมปลายจากเมืองเล็กๆในชนบทโมริชิมะ โฮดากะ ได้ตัดสินใจหนีออกจากบ้านไปใช้ชีวิตในโตเกียวเพียงลำพังเขาก็ได้พบกับความผิดปกติบางอย่างในเมืองแห่งนี้เนื่องด้วยเพราะต้องทำงานเบ๊ในนิตยสารรวมสิ่งลึกลับเลี้ยงชีพเขาจึงเริ่มสังเกตุเห็นถึงสิ่งหนึ่งที่เกิดขึ้นบ่อยจนคนในเมืองคิดว่าเป็นเรื่องปกติและนั้นก็เป็นจุดเริ่มต้นที่ทำให้เขาได้พบกับ อามาโนะ ฮินะ สาวน้อยปริศนาที่มีความสามารถในการควบคุมสภาพอากาศและความลับที่จะเปลี่ยนโฉมหน้าของโลกใบนี้ไปตลอดกาล!!!

จุดเด่นของเรื่อง
– ผลงานของ อาจารย์ มาโกโตะ ชิงไก ที่สานต่อความสำเร็จต่อจาก Your name หลับตาฝัน ถึงชื่อเธอ เมื่อปี 2016
– ภาพยนตร์เรื่องนี้มีการเล่าเรื่องสังคมญี่ปุ่นและตำน านความเชื่อที่เก่าแก่ ผสานกับความทันสมัยใหม่อย่างน่าติดตาม

Complete name : [MINI Super-HQ]_Weathering.with.You.2019.1080p.BrRip.DTS.x264.One2loadup.com.mkv
Format : Matroska
Format version : Version 4
File size : 4.04 GiB
Duration : 1 h 52 min
Overall bit rate : 5 148 kb/s
Movie name : [MINI Super-HQ]_Weathering.with.You.2019.1080p.BrRip.DTS.x264.One2loadup.com
Encoded date : UTC 2010-02-22 21:41:31
Writing application : mkvmerge v5.9.0 (‘On The Loose’) built on Dec 9 2012 15:37:01
Writing library : libebml v1.3.0 + libmatroska v1.4.0

Video
ID : 1
Format : AVC
Format/Info : Advanced Video Codec
Format profile : [email protected]
Format settings : CABAC / 4 Ref Frames
Format settings, CABAC : Yes
Format settings, ReFrames : 4 frames
Codec ID : V_MPEG4/ISO/AVC
Duration : 1 h 52 min
Bit rate : 3 843 kb/s
Nominal bit rate : 3 637 kb/s
Width : 1 920 pixels
Height : 1 080 pixels
Display aspect ratio : 16:9
Frame rate mode : Constant
Frame rate : 23.976 (24000/1001) FPS
Color space : YUV
Chroma subsampling : 4:2:0
Bit depth : 8 bits
Scan type : Progressive
Bits/(Pixel*Frame) : 0.077
Stream size : 3.01 GiB (75%)
Title : [MINI Super-HQ]_Weathering.with.You.2019.1080p.BrRip.DTS.x264.One2loadup.com
Writing library : x264 core 157 r2935 545de2f
Encoding settings : cabac=1 / ref=3 / deblock=1:0:0 / analyse=0x3:0x133 / me=umh / subme=11 / psy=1 / psy_rd=1.00:0.00 / mixed_ref=1 / me_range=48 / chroma_me=1 / trellis=2 / 8x8dct=1 / cqm=0 / deadzone=21,11 / fast_pskip=1 / chroma_qp_offset=-2 / threads=12 / lookahead_threads=1 / sliced_threads=0 / nr=0 / decimate=1 / interlaced=0 / bluray_compat=0 / constrained_intra=0 / bframes=3 / b_pyramid=2 / b_adapt=1 / b_bias=0 / direct=3 / weightb=1 / open_gop=0 / weightp=2 / keyint=240 / keyint_min=24 / scenecut=40 / intra_refresh=0 / rc_lookahead=60 / rc=2pass / mbtree=1 / bitrate=3637 / ratetol=1.0 / qcomp=0.60 / qpmin=0 / qpmax=69 / qpstep=4 / cplxblur=20.0 / qblur=0.5 / vbv_maxrate=25000 / vbv_bufsize=31250 / nal_hrd=none / filler=0 / ip_ratio=1.40 / aq=1:1.00
Language : Japanese
Default : Yes
Forced : No
Color range : Limited
Color primaries : BT.709
Transfer characteristics : BT.709
Matrix coefficients : BT.709

Audio #1
ID : 2
Format : AC-3
Format/Info : Audio Coding 3
Commercial name : Dolby Digital
Codec ID : A_AC3
Duration : 1 h 52 min
Bit rate mode : Constant
Bit rate : 448 kb/s
Channel(s) : 6 channels
Channel layout : L R C LFE Ls Rs
Sampling rate : 48.0 kHz
Frame rate : 31.250 FPS (1536 SPF)
Bit depth : 16 bits
Compression mode : Lossy
Stream size : 360 MiB (9%)
Title : Thai DVD Master
Language : Thai
Service kind : Complete Main
Default : Yes
Forced : Yes

Audio #2
ID : 3
Format : DTS
Format/Info : Digital Theater Systems
Codec ID : A_DTS
Duration : 1 h 52 min
Bit rate mode : Constant
Bit rate : 755 kb/s
Channel(s) : 6 channels
Channel layout : C L R Ls Rs LFE
Sampling rate : 48.0 kHz
Frame rate : 93.750 FPS (512 SPF)
Bit depth : 24 bits
Compression mode : Lossy
Stream size : 606 MiB (15%)
Title : Japanese DTS
Language : Japanese
Default : No
Forced : No

Text #1
ID : 4
Format : VobSub
Codec ID : S_VOBSUB
Codec ID/Info : Picture based subtitle format used on DVDs
Title : Thai 720p
Language : Thai
Default : No
Forced : No

Text #2
ID : 5
Format : VobSub
Codec ID : S_VOBSUB
Codec ID/Info : Picture based subtitle format used on DVDs
Title : Thai 1080p
Language : Thai
Default : Yes
Forced : Yes

Text #3
ID : 6
Format : VobSub
Codec ID : S_VOBSUB
Codec ID/Info : Picture based subtitle format used on DVDs
Title : Thai 1080p Yellow
Language : Thai
Default : No
Forced : No

Text #4
ID : 7
Format : VobSub
Codec ID : S_VOBSUB
Codec ID/Info : Picture based subtitle format used on DVDs
Title : Thai 1080p BIG
Language : Thai
Default : No
Forced : No

Text #5
ID : 8
Format : PGS
Codec ID : S_HDMV/PGS
Codec ID/Info : Picture based subtitle format used on BDs/HD-DVDs
Title : Thai PGS
Language : Thai
Default : No
Forced : No

Text #6
ID : 9
Format : PGS
Codec ID : S_HDMV/PGS
Codec ID/Info : Picture based subtitle format used on BDs/HD-DVDs
Title : Thai PGS Yellow
Language : Thai
Default : No
Forced : No

Text #7
ID : 10
Format : PGS
Codec ID : S_HDMV/PGS
Codec ID/Info : Picture based subtitle format used on BDs/HD-DVDs
Title : English
Language : English
Default : No
Forced : No

Menu
00:00:00.000 : :01
00:03:52.315 : :02
00:07:13.433 : :03
00:11:51.294 : :04
00:17:27.255 : :05
00:19:46.352 : :06
00:22:25.261 : :07
00:26:08.275 : :08
00:30:07.973 : :09
00:34:27.983 : :10
00:38:29.808 : :11
00:41:36.703 : :12
00:44:06.185 : :13
00:47:59.001 : :14
00:52:11.462 : :15
00:55:55.853 : :16
00:58:47.065 : :17
01:01:42.699 : :18
01:05:18.706 : :19
01:08:56.215 : :20
01:13:52.929 : :21
01:16:58.697 : :22
01:19:57.835 : :23
01:23:15.949 : :24
01:25:48.226 : :25
01:28:51.368 : :26
01:33:02.869 : :27
01:38:33.324 : :28
01:43:29.328 : :29
01:47:41.163 : :30

DOWNLOAD


PART01 |||| PART02 |||| PART03 |||| PART04

PART01 |||| PART02 |||| PART03 |||| PART04

PART01 |||| PART02 |||| PART03 |||| PART04

PART01 |||| PART02 |||| PART03 |||| PART04

PART01 |||| PART02 |||| PART03 |||| PART04



Disable Comments
%d bloggers like this: