[MINI Super-HQ] Wasp Network (2019) เครือข่ายอสรพิษ [1080p] [Netflix] [พากย์อังกฤษ 5.1] [Sondtrack บรรยายไทย + อังกฤษ] [เสียงอังกฤษ + ซับไทย] [PANDAFILE]

0

โหลดหนัง Wasp Network (2019) เครือข่ายอสรพิษ

Wasp Network (2019) 2h 7min | Crime, Drama, Thriller | 19 June 2020 (USA) Summary: The story of five Cuban political prisoners who had been imprisoned by the United States since the late 1990s on charges of espionage and murder.
Countries: France, Brazil, Spain, BelgiumLanguages: English, Spanish, Russian

เรื่องย่อ Wasp Network (2019) เครือข่ายอสรพิษ

หนังร่วมกันสร้างจากหลายชาติ ได้ฉายที่เทศกาลหนังนานาชาติเมืองเวนิสปี 2019 เรื่องราวของสปายคิวบาที่สืบหาข่าวลับในสหรัฐช่วงปี 1990 เรื่องราวสร้างมาจากหนังสือชื่อดังอย่าง The Last Soldiers on the Cold War ได้นักแสดงชื่อดังอย่างสาว Penelope Cruz และ Edgar Ramirez มารับบทนำทำให้เรื่องราวตื่นเต้น ใครชื่นชอบเรื่องราวอิงประวัติศาสตร์ สืบสวน ระทึกขวัญ แนะนำห้ามพลาดเรื่องนี้

Complete name : [MINI Super-HQ]_Wasp.Network.2019.1080p.WEB-DL.AC3.x264.Subthai.One2loadup.com.mkv
Format : Matroska
Format version : Version 4
File size : 4.94 GiB
Duration : 2 h 8 min
Overall bit rate mode : Variable
Overall bit rate : 5 523 kb/s
Movie name : [MINI Super-HQ]_Wasp.Network.2019.1080p.WEB-DL.AC3.x264.Subthai.One2loadup.com
Encoded date : UTC 2020-06-19 11:26:00
Writing application : mkvmerge v47.0.0 (‘Black Flag’) 64-bit
Writing library : libebml v1.3.10 + libmatroska v1.5.2
Cover : Yes
Attachments : cover

Video
ID : 1
Format : AVC
Format/Info : Advanced Video Codec
Format profile : [email protected]
Format settings : CABAC / 3 Ref Frames
Format settings, CABAC : Yes
Format settings, ReFrames : 3 frames
Codec ID : V_MPEG4/ISO/AVC
Duration : 2 h 8 min
Bit rate mode : Variable
Bit rate : 4 870 kb/s
Maximum bit rate : 7 305 kb/s
Width : 1 920 pixels
Height : 1 080 pixels
Display aspect ratio : 16:9
Frame rate mode : Constant
Frame rate : 24.000 FPS
Color space : YUV
Chroma subsampling : 4:2:0
Bit depth : 8 bits
Scan type : Progressive
Bits/(Pixel*Frame) : 0.098
Stream size : 4.33 GiB (88%)
Title : [MINI Super-HQ]_Wasp.Network.2019.1080p.WEB-DL.AC3.x264.Subthai.One2loadup.com
Writing library : x264 core 148 r2717 0d2410d
Encoding settings : cabac=1 / ref=3 / deblock=1:0:0 / analyse=0x1:0x111 / me=umh / subme=10 / psy=1 / psy_rd=1.00:0.00 / mixed_ref=1 / me_range=24 / chroma_me=1 / trellis=2 / 8x8dct=0 / cqm=0 / deadzone=21,11 / fast_pskip=1 / chroma_qp_offset=-2 / threads=6 / lookahead_threads=1 / sliced_threads=0 / nr=0 / decimate=1 / interlaced=0 / bluray_compat=0 / stitchable=1 / constrained_intra=0 / bframes=2 / b_pyramid=0 / b_adapt=2 / b_bias=0 / direct=3 / weightb=1 / open_gop=0 / weightp=2 / keyint=250 / keyint_min=24 / scenecut=0 / intra_refresh=0 / rc_lookahead=48 / rc=2pass / mbtree=1 / bitrate=4870 / ratetol=1.0 / qcomp=0.50 / qpmin=6 / qpmax=51 / qpstep=4 / cplxblur=20.0 / qblur=0.5 / vbv_maxrate=7305 / vbv_bufsize=9740 / nal_hrd=vbr / filler=0 / ip_ratio=1.40 / aq=1:1.00
Default : Yes
Forced : No

Audio
ID : 2
Format : E-AC-3
Format/Info : Enhanced AC-3
Commercial name : Dolby Digital Plus
Codec ID : A_EAC3
Duration : 2 h 8 min
Bit rate mode : Constant
Bit rate : 640 kb/s
Channel(s) : 6 channels
Channel layout : L R C LFE Ls Rs
Sampling rate : 48.0 kHz
Frame rate : 31.250 FPS (1536 SPF)
Compression mode : Lossy
Stream size : 586 MiB (12%)
Language : English
Service kind : Complete Main
Default : Yes
Forced : No

Text #1
ID : 3
Format : PGS
Muxing mode : zlib
Codec ID : S_HDMV/PGS
Codec ID/Info : Picture based subtitle format used on BDs/HD-DVDs
Duration : 2 h 4 min
Bit rate : 51.7 kb/s
Count of elements : 3760
Stream size : 46.0 MiB (1%)
Language : English
Default : No
Forced : No

Text #2
ID : 4
Format : PGS
Muxing mode : zlib
Codec ID : S_HDMV/PGS
Codec ID/Info : Picture based subtitle format used on BDs/HD-DVDs
Duration : 2 h 6 min
Bit rate : 35.9 kb/s
Count of elements : 3290
Stream size : 32.5 MiB (1%)
Language : Thai
Default : Yes
Forced : No

DOWNLOAD


PART01 |||| PART02 |||| PART03 |||| PART04 |||| PART05 |||| PART06

PART01 |||| PART02 |||| PART03 |||| PART04 |||| PART05 |||| PART06

PART01 |||| PART02 |||| PART03 |||| PART04 |||| PART05 |||| PART06

PART01 |||| PART02 |||| PART03 |||| PART04 |||| PART05 |||| PART06

PART01 |||| PART02 |||| PART03 |||| PART04 |||| PART05 |||| PART06



Disable Comments
%d bloggers like this: