[MINI Super-HQ] Ultraman Taiga The Movie: New Generation Climax (2020) อุลตร้าแมนไทกะ นิวเจนเนอเรชั่นรวมพล [1080p] [พากย์ไทย 2.0 + เสียงญี่ปุ่น 5.1] [บรรยายอังกฤษ] [เสียงไทยมาสเตอร์ + ซับไทย] [USERLOAD]

0

โหลดหนัง Ultraman Taiga The Movie: New Generation Climax (2020) อุลตร้าแมนไทกะ นิวเจนเนอเรชั่นรวมพล

Ultraman Taiga: New Generation Climax (2020) 71min | Action, Fantasy | August 7, 2020 (Japan) Summary:
Countries: JapanLanguages: Japanese

เรื่องย่อ Ultraman Taiga The Movie: New Generation Climax (2020) อุลตร้าแมนไทกะ นิวเจนเนอเรชั่นรวมพล

“คุโด้ ฮิโรยูกิ” มีความสามารถที่จะแปลงร่างเป็นอุลตร้าแมนได้สามคนนั่ นก็คือ ไทกะ, ไททัส และ ฟูมะ หลังจากอยู่ร่วมกันมานานพวกเค้าทั้ง 4 คนมีความสัมพันธ์ที่เหนียวแน่นมากขึ้น แต่พวกเค้าได้ถูกใครบางคนหมายหัวอยู่และ “อุลตร้าแมนทาโร่” พ่อของ “อุลตร้าแมนไทกะ” กลับเข้าทำร้ายไทกะมันเกิดอะไรขึ้นกับทาโร่กันแน่?และเมื่ออุลตร้าแมนรุ่นใหม่ได้รู้ถึงเรื่องนั้นทำให้ พวกเขาได้มารวมตัวกันเพื่อช่วยเหลือฮิโรยูกิ!!!

Complete name : [MINI Super-HQ]_Ultraman.Taiga.the.Movie.New.Generation.Climax.2020.1080p.WEB-DL.EAC3.x265.THM.One2loadup.com.mkv
Format : Matroska
Format version : Version 4
File size : 4.76 GiB
Duration : 1 h 11 min
Overall bit rate mode : Variable
Overall bit rate : 9 459 kb/s
Movie name : [MINI Super-HQ]_Ultraman.Taiga.the.Movie.New.Generation.Climax.2020.1080p.WEB-DL.EAC3.x265.THM.One2loadup.com
Encoded date : UTC 2021-08-16 20:26:28
Writing application : mkvmerge v9.8.0 (‘Kuglblids’) 64bit
Writing library : libebml v1.3.4 + libmatroska v1.4.5

Video
ID : 1
Format : HEVC
Format/Info : High Efficiency Video Coding
Format profile : [email protected]@Main
Codec ID : V_MPEGH/ISO/HEVC
Duration : 1 h 11 min
Bit rate : 7 700 kb/s
Width : 1 920 pixels
Height : 1 080 pixels
Display aspect ratio : 16:9
Frame rate mode : Constant
Frame rate : 23.976 (24000/1001) FPS
Color space : YUV
Chroma subsampling : 4:2:0
Bit depth : 8 bits
Bits/(Pixel*Frame) : 0.155
Stream size : 3.87 GiB (81%)
Title : [MINI Super-HQ]_Ultraman.Taiga.the.Movie.New.Generation.Climax.2020.1080p.WEB-DL.EAC3.x265.THM.One2loadup.com
Language : Japanese
Default : Yes
Forced : No
Color range : Limited
Color primaries : BT.709
Transfer characteristics : BT.709
Matrix coefficients : BT.709

Audio #1
ID : 2
Format : AC-3
Format/Info : Audio Coding 3
Commercial name : Dolby Digital
Codec ID : A_AC3
Duration : 1 h 11 min
Bit rate mode : Constant
Bit rate : 384 kb/s
Channel(s) : 2 channels
Channel layout : L R
Sampling rate : 48.0 kHz
Frame rate : 31.250 FPS (1536 SPF)
Compression mode : Lossy
Stream size : 197 MiB (4%)
Title : Thai Master
Language : Thai
Service kind : Complete Main
Default : Yes
Forced : Yes

Audio #2
ID : 3
Format : FLAC
Format/Info : Free Lossless Audio Codec
Codec ID : A_FLAC
Duration : 1 h 11 min
Bit rate mode : Variable
Bit rate : 712 kb/s
Channel(s) : 2 channels
Channel layout : L R
Sampling rate : 48.0 kHz
Frame rate : 10.417 FPS (4608 SPF)
Bit depth : 16 bits
Compression mode : Lossless
Stream size : 366 MiB (8%)
Title : Japanese Flac
Language : Japanese
Default : No
Forced : No

Audio #3
ID : 4
Format : AC-3
Format/Info : Audio Coding 3
Commercial name : Dolby Digital
Codec ID : A_AC3
Duration : 1 h 11 min
Bit rate mode : Constant
Bit rate : 640 kb/s
Channel(s) : 2 channels
Channel layout : L R
Sampling rate : 48.0 kHz
Frame rate : 31.250 FPS (1536 SPF)
Compression mode : Lossy
Stream size : 330 MiB (7%)
Title : Japanese AC-3
Language : Japanese
Service kind : Complete Main
Default : No
Forced : No

Text
ID : 5
Format : PGS
Codec ID : S_HDMV/PGS
Codec ID/Info : Picture based subtitle format used on BDs/HD-DVDs
Duration : 1 h 5 min
Bit rate : 25.4 kb/s
Count of elements : 1796
Stream size : 12.0 MiB (0%)
Title : English PGS
Language : English
Default : Yes
Forced : No

Menu
00:00:00.000 : :(01)00:00:00:000
00:06:18.336 : :(02)00:06:18:336
00:11:14.883 : :(03)00:11:14:882
00:18:36.824 : :(04)00:18:36:824
00:24:20.668 : :(05)00:24:20:667
00:33:59.204 : :(06)00:33:59:203
00:40:06.529 : :(07)00:40:06:529
00:47:33.893 : :(08)00:47:33:892
00:54:16.587 : :(09)00:54:16:586
00:57:22.272 : :(10)00:57:22:272
01:01:42.699 : :(11)01:01:42:699
01:06:13.428 : :(12)01:06:13:427
01:11:46.302 : :(13)01:11:46:302

DOWNLOAD


PART01 |||| PART02 |||| PART03 |||| PART04 |||| PART05

PART01 |||| PART02 |||| PART03 |||| PART04 |||| PART05

PART01 |||| PART02 |||| PART03 |||| PART04 |||| PART05

PART01 |||| PART02 |||| PART03 |||| PART04 |||| PART05

PART01 |||| PART02 |||| PART03 |||| PART04 |||| PART05


Leave A Reply

อีเมล์ของคุณจะไม่แสดงให้เห็น Your email address will not be published.

%d bloggers like this: