[MINI Super-HQ] Trolls World Tour (2020) โทรลล์ส เวิลด์ ทัวร์ [1080p] [พากย์ไทย 5.1 + เสียงอังกฤษ DTS] [บรรยายไทย + อังกฤษ] [เสียงไทย + ซับไทย] [PANDAFILE]

0

โหลดหนัง Trolls World Tour (2020) โทรลล์ส เวิลด์ ทัวร์

Trolls World Tour (2020) 1h 30min | Animation, Adventure, Comedy | 10 April 2020 (USA) Summary: When the Queen of the Hard Rock Trolls tries to take over all the Troll kingdoms, Queen Poppy and her friends try different ways to save all the Trolls.
Countries: USALanguages: English

เรื่องย่อ Trolls World Tour (2020) โทรลล์ส เวิลด์ ทัวร์

แอนนา เคนดริก และจัสติน ทิมเบอร์เลค กลับมาให้เสียงพากย์ใน Trolls World Tour โทรลล์ เวิลด์ ทัวร์ ภาคต่อของผลงานภาพยนตร์มิวสิคัลสุดฮิตในปี 2016 ของดรีมเวิร์คส์ อนิเมชั่นในการผจญภัยที่จะพาพวกเขาไปยังที่ที่พวกเขาเคยรู้จัก มาก่อน ป็อปปี้ (เคนดริก) และบรันช์ (ทิมเบอร์เลค) พบว่าพวกเขาเป็นเพียงหนึ่งในหกเผ่าโทรลล์ซึ่งกระจายอยู่ทั่วหกดินแดนที่มีความแตกต่างกันและชื ่นชอบดนตรี 6 ประเภทที่แตกต่างกัน: ฟั๊งค์, คันทรี, เทคโน, คลาสสิค, ป็อป และร็อค โลกของพวกเขากำลังจะขยายใหญ่ขึ้นและดังขึ้น ควีน บาร์บ (เรเชล บลูม) สมาชิกของสาวกดนตรีฮาร์ดร็อคและคุณพ่อ คิง แทรช (ออสซี่ ออสบอร์น) อยากจะทำลายดนตรีประเภทอื่น ๆ เพื่อให้ดนตรีร็อคขึ้นครองบัลลังก์เมื่อโลกตกอยู่ในความเสี่ยง, ป็อปปี้, บรันช์ และเพื่อน อย่าง บิ๊กกี้ (เจมส์ คอร์เดน), เชนนิล (คาโรไลน์ ฮเจลท์), ซาติน (ไอโน จาโว) คูเปอร์ (รอน ฟันเชส) และกาย ไดมอนด์ (คูนาล เนย์ยาร์) ออกเดินทางไปยังดินแดนอื่น ๆ ทั้งหมดเพื่อรวมเหล่าโทรลล์เข้าด้วยกัน เพื่อต่อต้านบาร์บที่กำลังเตรียมทำลายล้างพวกเขาทั้งหมด!!!

Complete name : [MINI Super-HQ]_Trolls.World.Tour.2020.1080p.BrRip.DTS.x264.One2loadup.com.mkv
Format : Matroska
Format version : Version 4
File size : 4.05 GiB
Duration : 1 h 30 min
Overall bit rate : 6 383 kb/s
Movie name : [MINI Super-HQ]_Trolls.World.Tour.2020.1080p.BrRip.DTS.x264.One2loadup.com
Encoded date : UTC 2010-02-22 21:41:31
Writing application : mkvmerge v5.9.0 (‘On The Loose’) built on Dec 9 2012 15:37:01
Writing library : libebml v1.3.0 + libmatroska v1.4.0

Video
ID : 1
Format : AVC
Format/Info : Advanced Video Codec
Format profile : [email protected]
Format settings : CABAC / 4 Ref Frames
Format settings, CABAC : Yes
Format settings, ReFrames : 4 frames
Codec ID : V_MPEG4/ISO/AVC
Duration : 1 h 30 min
Bit rate : 4 850 kb/s
Width : 1 920 pixels
Height : 816 pixels
Display aspect ratio : 2.35:1
Frame rate mode : Constant
Frame rate : 23.976 (24000/1001) FPS
Color space : YUV
Chroma subsampling : 4:2:0
Bit depth : 8 bits
Scan type : Progressive
Bits/(Pixel*Frame) : 0.129
Stream size : 3.08 GiB (76%)
Title : [MINI Super-HQ]_Trolls.World.Tour.2020.1080p.BrRip.DTS.x264.One2loadup.com
Writing library : x264 core 146 r2538 121396c
Encoding settings : cabac=1 / ref=5 / deblock=1:-3:-3 / analyse=0x3:0x133 / me=tesa / subme=11 / psy=1 / psy_rd=0.40:0.00 / mixed_ref=1 / me_range=48 / chroma_me=1 / trellis=2 / 8x8dct=1 / cqm=0 / deadzone=21,11 / fast_pskip=1 / chroma_qp_offset=-2 / threads=54 / lookahead_threads=4 / sliced_threads=0 / nr=0 / decimate=1 / interlaced=0 / bluray_compat=1 / constrained_intra=0 / bframes=3 / b_pyramid=1 / b_adapt=2 / b_bias=0 / direct=3 / weightb=1 / open_gop=0 / weightp=1 / keyint=250 / keyint_min=1 / scenecut=40 / intra_refresh=0 / rc_lookahead=60 / rc=2pass / mbtree=1 / bitrate=4850 / ratetol=1.0 / qcomp=0.60 / qpmin=0 / qpmax=69 / qpstep=4 / cplxblur=20.0 / qblur=0.5 / ip_ratio=1.40 / aq=1:1.30
Language : English
Default : Yes
Forced : No

Audio #1
ID : 2
Format : AC-3
Format/Info : Audio Coding 3
Commercial name : Dolby Digital
Codec ID : A_AC3
Duration : 1 h 30 min
Bit rate mode : Constant
Bit rate : 640 kb/s
Channel(s) : 6 channels
Channel layout : L R C LFE Ls Rs
Sampling rate : 48.0 kHz
Frame rate : 31.250 FPS (1536 SPF)
Bit depth : 16 bits
Compression mode : Lossy
Stream size : 415 MiB (10%)
Title : Thai BluRay Master
Language : Thai
Service kind : Complete Main
Default : Yes
Forced : Yes

Audio #2
ID : 3
Format : DTS
Format/Info : Digital Theater Systems
Codec ID : A_DTS
Duration : 1 h 30 min
Bit rate mode : Constant
Bit rate : 755 kb/s
Channel(s) : 6 channels
Channel layout : C L R Ls Rs LFE
Sampling rate : 48.0 kHz
Frame rate : 93.750 FPS (512 SPF)
Bit depth : 24 bits
Compression mode : Lossy
Stream size : 490 MiB (12%)
Title : English DTS
Language : English
Default : No
Forced : No

Text #1
ID : 4
Format : VobSub
Codec ID : S_VOBSUB
Codec ID/Info : Picture based subtitle format used on DVDs
Title : Thai 720p
Language : Thai
Default : No
Forced : No

Text #2
ID : 5
Format : VobSub
Codec ID : S_VOBSUB
Codec ID/Info : Picture based subtitle format used on DVDs
Title : Thai 1080p
Language : Thai
Default : Yes
Forced : Yes

Text #3
ID : 6
Format : VobSub
Codec ID : S_VOBSUB
Codec ID/Info : Picture based subtitle format used on DVDs
Title : Thai 1080p Yellow
Language : Thai
Default : No
Forced : No

Text #4
ID : 7
Format : VobSub
Codec ID : S_VOBSUB
Codec ID/Info : Picture based subtitle format used on DVDs
Title : Thai 1080p Out
Language : Thai
Default : No
Forced : No

Text #5
ID : 8
Format : VobSub
Codec ID : S_VOBSUB
Codec ID/Info : Picture based subtitle format used on DVDs
Title : Thai 1080p BIG
Language : Thai
Default : No
Forced : No

Text #6
ID : 9
Format : PGS
Codec ID : S_HDMV/PGS
Codec ID/Info : Picture based subtitle format used on BDs/HD-DVDs
Title : Thai PGS BluRay Master
Language : Thai
Default : No
Forced : No

Text #7
ID : 10
Format : PGS
Codec ID : S_HDMV/PGS
Codec ID/Info : Picture based subtitle format used on BDs/HD-DVDs
Title : Thai PGS Out
Language : Thai
Default : No
Forced : No

Text #8
ID : 11
Format : PGS
Codec ID : S_HDMV/PGS
Codec ID/Info : Picture based subtitle format used on BDs/HD-DVDs
Title : English
Language : English
Default : No
Forced : No

DOWNLOAD


PART01 |||| PART02 |||| PART03 |||| PART04 |||| PART05

PART01 |||| PART02 |||| PART03 |||| PART04 |||| PART05

PART01 |||| PART02 |||| PART03 |||| PART04 |||| PART05

PART01 |||| PART02 |||| PART03 |||| PART04 |||| PART05

PART01 |||| PART02 |||| PART03 |||| PART04 |||| PART05



Disable Comments
%d bloggers like this: