[MINI Super-HQ] Transporter 3 (2008) เพชฌฆาต สัญชาติเทอร์โบ ภาค 3 [1080p] [พากย์ไทย 5.1 + เสียงอังกฤษ DTS] [บรรยายไทย + อังกฤษ] [เสียงไทย + ซับไทย] [PANDAFILE]

0

Transporter 3 (2008) เพชฌฆาต สัญชาติเทอร์โบ ภาค 3

โหลดหนัง Transporter 3 (2008) เพชฌฆาต สัญชาติเทอร์โบ ภาค 3

Transporter 3 | November 26, 2008 (United States) Summary: Frank Martin is forced to deliver Valentina, the kidnapped daughter of a Ukrainian government official, from Marseilles to Odessa on the Black Sea. En route, he has to contend with thugs who... Read all
Countries: France, United States, United KingdomLanguages: English, French, Ukrainian, Russian, Hungarian

เรื่องย่อ Transporter 3 (2008) เพชฌฆาต สัญชาติเทอร์โบ ภาค 3

แฟรงค์ มาร์ติน (เจสัน สเตทแฮม ) ถูกบีบให้ลักพาตัว วาเลนติน่า (นาตาลย่า รุดดาโคว่า) ลูกสาวของเลียวนิ้ด วาสิเลฟ (เยอร์เรียน แครบเบ้) หัวหน้าหน่วยพิทักษ์สิ่งแวดล้อม ในยูเครน ข้ามจากมาร์เซย ผ่านสตุทการ์ท ตะลุยบูดาเปสต์ กว่าจะไปส่งที่จุดหมายปลายทาง ณ โอเดสซ่า ริมทะเลดำตลอดเส้นทางของภารกิจนี้ แฟรงค์ ได้รับความช่วยเหลือจากนักสืบทาร์โคนี่ (ฟรังซัว เบอร์เลี่ยน ) เป็นอย่างดีในการรับมือกับผู้บงการภารกิจสุดจำใจครั้ งนี้ ในขณะที่ วาสิเลฟ ส่งลูกน้องเข้ามาขัดขวางหวังชิงตัวลูกสาวคืน วาเลนติน่าเองก็ขัดขืนเต็มกำลัง แต่ถึงเธอจะปากร้ายและเขาเองก็ไม่อยากเกี่ยวข้องกับบุคคลในภารกิจ แต่แฟรงค์ไม่วายตกหลุมรักวาเลนติน่าเต็มเปา ทั้ง ๆ ที่ต่างฝ่ายต่างพยายามหนีเอาชีวิตให้รอดจากสถานการณ์ หน้าสิ่วหน้าขวานครั้งแล้วครั้งเล่า

Complete name : [MINI Super-HQ]_3.Transporter.2008.1080p.BrRip.DTS.x264.One2loadup.com.mkv
Format : Matroska
Format version : Version 4
File size : 3.98 GiB
Duration : 1 h 43 min
Overall bit rate : 5 480 kb/s
Movie name : [MINI Super-HQ]_3.Transporter.2008.1080p.BrRip.DTS.x264.One2loadup.com
Encoded date : UTC 2018-12-30 12:28:54
Writing application : mkvmerge v29.0.0 (‘Like It Or Not’) 64-bit
Writing library : libebml v1.3.6 + libmatroska v1.4.9

Video
ID : 1
Format : AVC
Format/Info : Advanced Video Codec
Format profile : [email protected]
Format settings : CABAC / 4 Ref Frames
Format settings, CABAC : Yes
Format settings, ReFrames : 4 frames
Codec ID : V_MPEG4/ISO/AVC
Duration : 1 h 43 min
Bit rate : 3 462 kb/s
Width : 1 920 pixels
Height : 818 pixels
Display aspect ratio : 2.35:1
Frame rate mode : Constant
Frame rate : 23.976 (24000/1001) FPS
Color space : YUV
Chroma subsampling : 4:2:0
Bit depth : 8 bits
Scan type : Progressive
Bits/(Pixel*Frame) : 0.092
Stream size : 2.51 GiB (63%)
Title : [MINI Super-HQ]_3.Transporter.2008.1080p.BrRip.DTS.x264.One2loadup.com
Writing library : x264 core 142 r2479 dd79a61
Encoding settings : cabac=1 / ref=1 / deblock=1:0:0 / analyse=0x1:0x111 / me=hex / subme=2 / psy=1 / psy_rd=1.00:0.00 / mixed_ref=0 / me_range=16 / chroma_me=1 / trellis=0 / 8x8dct=0 / cqm=0 / deadzone=21,11 / fast_pskip=1 / chroma_qp_offset=0 / threads=6 / lookahead_threads=2 / sliced_threads=0 / nr=0 / decimate=1 / interlaced=0 / bluray_compat=0 / constrained_intra=0 / bframes=3 / b_pyramid=2 / b_adapt=1 / b_bias=0 / direct=1 / weightb=1 / open_gop=0 / weightp=1 / keyint=240 / keyint_min=24 / scenecut=40 / intra_refresh=0 / rc_lookahead=10 / rc=crf / mbtree=1 / crf=24.0 / qcomp=0.60 / qpmin=0 / qpmax=69 / qpstep=4 / vbv_maxrate=20000 / vbv_bufsize=25000 / crf_max=0.0 / nal_hrd=none / filler=0 / ip_ratio=1.40 / aq=1:1.00
Language : English
Default : Yes
Forced : Yes
Color range : Limited
Color primaries : BT.709
Transfer characteristics : BT.709
Matrix coefficients : BT.709

Audio #1
ID : 2
Format : AC-3
Format/Info : Audio Coding 3
Commercial name : Dolby Digital
Codec ID : A_AC3
Duration : 1 h 43 min
Bit rate mode : Constant
Bit rate : 448 kb/s
Channel(s) : 6 channels
Channel layout : L R C LFE Ls Rs
Sampling rate : 48.0 kHz
Frame rate : 31.250 FPS (1536 SPF)
Bit depth : 16 bits
Compression mode : Lossy
Stream size : 333 MiB (8%)
Title : Thai 5.1
Language : Thai
Service kind : Complete Main
Default : Yes
Forced : Yes

Audio #2
ID : 3
Format : DTS
Format/Info : Digital Theater Systems
Codec ID : A_DTS
Duration : 1 h 43 min
Bit rate mode : Constant
Bit rate : 1 509 kb/s
Channel(s) : 6 channels
Channel layout : C L R Ls Rs LFE
Sampling rate : 48.0 kHz
Frame rate : 93.750 FPS (512 SPF)
Bit depth : 24 bits
Compression mode : Lossy
Stream size : 1.10 GiB (28%)
Title : English DTS
Language : English
Default : No
Forced : No

Text #1
ID : 4
Format : PGS
Muxing mode : zlib
Codec ID : S_HDMV/PGS
Codec ID/Info : Picture based subtitle format used on BDs/HD-DVDs
Duration : 1 h 37 min
Bit rate : 30.7 kb/s
Count of elements : 2038
Stream size : 21.5 MiB (1%)
Title : บรรยายไทย
Language : Thai
Default : Yes
Forced : Yes

Text #2
ID : 5
Format : PGS
Muxing mode : zlib
Codec ID : S_HDMV/PGS
Codec ID/Info : Picture based subtitle format used on BDs/HD-DVDs
Duration : 1 h 37 min
Bit rate : 30.6 kb/s
Count of elements : 2038
Stream size : 21.4 MiB (1%)
Title : บรรยายไทย
Language : Thai
Default : No
Forced : No

Text #3
ID : 6
Format : PGS
Muxing mode : zlib
Codec ID : S_HDMV/PGS
Codec ID/Info : Picture based subtitle format used on BDs/HD-DVDs
Duration : 1 h 37 min
Bit rate : 30.6 kb/s
Count of elements : 2038
Stream size : 21.4 MiB (1%)
Title : บรรยายไทย
Language : Thai
Default : No
Forced : No

Text #4
ID : 7
Format : VobSub
Muxing mode : zlib
Codec ID : S_VOBSUB
Codec ID/Info : Picture based subtitle format used on DVDs
Duration : 1 h 37 min
Bit rate : 6 821 b/s
Count of elements : 1019
Stream size : 4.76 MiB (0%)
Title : บรรยายไทย
Language : Thai
Default : No
Forced : No

Text #5
ID : 8
Format : VobSub
Muxing mode : zlib
Codec ID : S_VOBSUB
Codec ID/Info : Picture based subtitle format used on DVDs
Duration : 1 h 37 min
Bit rate : 6 845 b/s
Count of elements : 1019
Stream size : 4.78 MiB (0%)
Title : บรรยายไทย
Language : Thai
Default : No
Forced : No

Text #6
ID : 9
Format : PGS
Muxing mode : zlib
Codec ID : S_HDMV/PGS
Codec ID/Info : Picture based subtitle format used on BDs/HD-DVDs
Duration : 1 h 35 min
Bit rate : 23.5 kb/s
Count of elements : 1756
Stream size : 16.1 MiB (0%)
Title : บรรยายอังกฤษ
Language : English
Default : No
Forced : No

Menu
00:00:00.000 : :Chapter 1
00:08:04.668 : :Chapter 2
00:14:38.603 : :Chapter 3
00:17:04.624 : :Chapter 4
00:22:03.423 : :Chapter 5
00:30:54.370 : :Chapter 6
00:35:10.292 : :Chapter 7
00:41:47.856 : :Chapter 8
00:48:58.411 : :Chapter 9
00:56:55.304 : :Chapter 10
01:06:43.767 : :Chapter 11
01:11:06.363 : :Chapter 12
01:17:09.434 : :Chapter 13
01:22:20.286 : :Chapter 14
01:29:54.573 : :Chapter 15
01:35:40.961 : :Chapter 16

DOWNLOAD


PART01 |||| PART02 |||| PART03 |||| PART04 |||| PART05

PART01 |||| PART02 |||| PART03 |||| PART04 |||| PART05

PART01 |||| PART02 |||| PART03 |||| PART04 |||| PART05

PART01 |||| PART02 |||| PART03 |||| PART04 |||| PART05

PART01 |||| PART02 |||| PART03 |||| PART04 |||| PART05


Leave A Reply

อีเมล์ของคุณจะไม่แสดงให้เห็น Your email address will not be published.

%d bloggers like this: