[MINI Super-HQ] Training Day (2001) ตำรวจระห่ำ…คดไม่เป็น [1080p] [พากย์ไทย 5.1 + เสียงอังกฤษ 5.1] [บรรยายไทย + อังกฤษ] [เสียงไทย + ซับไทย] [OPENLOAD]

2

Training Day (2001)

โหลดหนัง Training Day (2001) ตำรวจระห่ำ…คดไม่เป็น

Training Day (2001) 2h 2min | Crime, Drama, Thriller | 31 January 2002 (Netherlands) Summary: On his first day on the job as a Los Angeles narcotics officer, a rookie cop goes beyond a full work day in training within the narcotics division of the L.A.P.D. with a rogue detective who isn't what he appears to be.
Countries: USALanguages: Greek, English, Russian, Spanish, Korean

เรื่องย่อ Training Day (2001) ตำรวจระห่ำ…คดไม่เป็น

ตามถนนใจกลางเมืองของอเมริกาทุกวันนี้ ยังมีสงครามย่อย ๆ ขับเคี่ยวอยู่ไม่เว้นวัน สงครามระหว่างผู้คนที่อยู่บ้านใกล้เรือนเคียง พ่อค้ายาเสพติดและกลุ่มคนที่สาบานตนว่าจะปกป้องผู้คน จากภัยรอบกาย สงครามนี้ย่อมมีผู้ตกเป็นเหยื่อ แต่ไม่มีใครจะเอารอดไปอย่างลอยนวลได้ทุกครั้งเฉกเช่น จ่านักสืบแห่งสำนักงานตำรวจลอส แองเจลิส ชื่อ อัลลอนโซ่ แฮร์ริส (เดนเซล วอชิงตัน) ตำรวจหน่วยยาเสพติดที่มีประสบการณ์ผ่านมาอย่างโชกโชนมานานถึง 13 ปีวิธีจัดการกับคดีของเขาสร้างความคลางแคลงใจว่าเส้น ขีดแบ่งกติกากฎหมายบ้านเมือง กับการทุจริตคอรัปชั่นอยู่ตรงไหนกันแน่ ทัศนคติมองโลกในแง่ดีของเขาค่อย ๆ เลือนหายไปตั้งแต่โดนย้ายมาตรวจท้องที่ต้องใช้ชีวิตเสี่ยงภัยบนท้องถนนที่เต็มไปด้วยอันตราย และการรักษากฎหมายอย่างเที่ยงตรงอาจทำให้ชะตาขาดได้บ่อยครั้งที่ อัลลอนโซ่ และคณะต้องปิดคดีด้วยการก้าวข้ามขีดจำกัดของกฎหมายไปบ้างภาพยนตร์เรื่อง Training Day เป็นผลงานดราม่าสะท้อนเรื่องราวจากชีวิตจริงสุดระห่ำ ในโลกของ อัลลอนโซ่ ตำรวจแกร่งที่ต้องสืบคดีในทางลับ และซ่อนตัวให้รอดจากภัยรอบด้านในขณะเดียวกันเขาก็ต้อ งลองใจตำรวจมือใหม่ผู้ยึดมั่นในตัวบทกฎหมายอย่างซื่อตรงชื่อ เจ้ค ฮ้อยท์ (อีธาน ฮอว์ค) ซึ่งมีเวลาเพียงวันเดียวที่จะพิสูจน์ตัวเองให้นายเบื้องบนที่แสนจะเกรี้ยวกราดเห็นความสามารถเพียง 24 ชั่วโมงถัดจากนี้เจ้คจะถูกดึงให้ถลำลึกลงไปในโลกโสมมของ อัลลอนโซ่ ที่ตำรวจทั้งสองนายต้องเดิมพันด้วยชีวิตและหน้าที่การงานเพื่อรักษาไว้ซึ่งความเชื่อมั่นในความยุติธรรมที่ตีความต่างกันสุดขั้ว

Complete name : [MINI Super-HQ]_Training.Day.2001.1080p.BDRip.AC3.x264.One2loadup.com.mkv
Format : Matroska
Format version : Version 2
File size : 3.32 GiB
Duration : 2 h 2 min
Overall bit rate : 3 886 kb/s
Movie name : [MINI Super-HQ]_Training.Day.2001.1080p.BDRip.AC3.x264.One2loadup.com
Encoded date : UTC 2017-03-31 14:15:21
Writing application : mkvmerge v5.7.0 (‘The Whirlwind’) built on Jul 8 2012 20:08:51
Writing library : libebml v1.2.3 + libmatroska v1.3.0
Cover : Yes

Video
ID : 1
Format : AVC
Format/Info : Advanced Video Codec
Format profile : [email protected]
Format settings : CABAC / 5 Ref Frames
Format settings, CABAC : Yes
Format settings, ReFrames : 5 frames
Muxing mode : Header stripping
Codec ID : V_MPEG4/ISO/AVC
Duration : 2 h 2 min
Bit rate : 3 000 kb/s
Width : 1 920 pixels
Height : 800 pixels
Display aspect ratio : 2.35:1
Original display aspect rat : 2.40:1
Frame rate mode : Constant
Frame rate : 23.976 (24000/1001) FPS
Color space : YUV
Chroma subsampling : 4:2:0
Bit depth : 8 bits
Scan type : Progressive
Bits/(Pixel*Frame) : 0.081
Stream size : 2.49 GiB (75%)
Title : [MINI Super-HQ]_Training.Day.2001.1080p.BDRip.AC3.x264.One2loadup.com
Writing library : x264 core 130 r2273 b3065e6
Encoding settings : cabac=1 / ref=5 / deblock=1:0:0 / analyse=0x3:0x113 / me=hex / subme=9 / psy=1 / psy_rd=1.00:0.00 / mixed_ref=1 / me_range=16 / chroma_me=1 / trellis=1 / 8x8dct=1 / cqm=0 / deadzone=21,11 / fast_pskip=1 / chroma_qp_offset=-2 / threads=6 / lookahead_threads=1 / sliced_threads=0 / nr=0 / decimate=1 / interlaced=0 / bluray_compat=0 / constrained_intra=0 / bframes=4 / b_pyramid=2 / b_adapt=1 / b_bias=0 / direct=1 / weightb=1 / open_gop=0 / weightp=2 / keyint=240 / keyint_min=24 / scenecut=40 / intra_refresh=0 / rc_lookahead=40 / rc=abr / mbtree=1 / bitrate=3000 / ratetol=1.0 / qcomp=0.60 / qpmin=0 / qpmax=69 / qpstep=4 / vbv_maxrate=62500 / vbv_bufsize=78125 / nal_hrd=none / ip_ratio=1.40 / aq=1:1.00
Language : English
Default : Yes
Forced : No
Color range : Limited
Color primaries : BT.709
Transfer characteristics : BT.709
Matrix coefficients : BT.709

Audio #1
ID : 2
Format : AC-3
Format/Info : Audio Coding 3
Muxing mode : Header stripping
Codec ID : A_AC3
Duration : 2 h 2 min
Bit rate mode : Constant
Bit rate : 448 kb/s
Channel(s) : 6 channels
Channel positions : Front: L C R, Side: L R, LFE
Sampling rate : 48.0 kHz
Frame rate : 31.250 FPS (1536 SPF)
Bit depth : 16 bits
Compression mode : Lossy
Stream size : 392 MiB (12%)
Title : AC3 5.1 From DVD Master
Language : Thai
Service kind : Complete Main
Default : Yes
Forced : Yes

Audio #2
ID : 3
Format : AC-3
Format/Info : Audio Coding 3
Muxing mode : Header stripping
Codec ID : A_AC3
Duration : 2 h 2 min
Bit rate mode : Constant
Bit rate : 448 kb/s
Channel(s) : 6 channels
Channel positions : Front: L C R, Side: L R, LFE
Sampling rate : 48.0 kHz
Frame rate : 31.250 FPS (1536 SPF)
Bit depth : 16 bits
Compression mode : Lossy
Stream size : 392 MiB (12%)
Title : AC3 5.1 From DVD Master
Language : English
Service kind : Complete Main
Default : No
Forced : No

Text #1
ID : 4
Format : VobSub
Muxing mode : zlib
Codec ID : S_VOBSUB
Title : From DVD Master
Language : Thai
Default : No
Forced : No

Text #2
ID : 5
Format : VobSub
Muxing mode : zlib
Codec ID : S_VOBSUB
Title : 1080P AS
Language : Thai
Default : Yes
Forced : Yes

Text #3
ID : 6
Format : UTF-8
Codec ID : S_TEXT/UTF8
Codec ID/Info : UTF-8 Plain Text
Title : SRT
Language : Thai
Default : No
Forced : No

Text #4
ID : 7
Format : UTF-8
Codec ID : S_TEXT/UTF8
Codec ID/Info : UTF-8 Plain Text
Title : English
Language : English
Default : No
Forced : No

Text #5
ID : 8
Format : PGS
Muxing mode : zlib
Codec ID : S_HDMV/PGS
Title : AS
Language : Thai
Default : No
Forced : No

DOWNLOAD


PART01 |||| PART02 |||| PART03 |||| PART04

PART01 |||| PART02 |||| PART03 |||| PART04

PART01 |||| PART02 |||| PART03 |||| PART04

PART01 |||| PART02 |||| PART03 |||| PART04


2 Comments
  1. Jason Karl
    Jason Karl says

    โหลดไม่ได้เลย

    1. Admin
      Admin says

      แก้ไขเรียบร้อยฮ๊ะ

Leave A Reply

Your email address will not be published.

%d bloggers like this: