[MINI Super-HQ] Top Gun: Maverick (2022) ท็อปกัน: มาเวอริค [IMAX] [1080p] [พากย์ไทย 5.1 + เสียงอังกฤษ 5.1] [บรรยายไทย + อังกฤษ] [เสียงไทย + ซับไทย] [DOSYAUPLOAD]

0

โหลดหนัง Top Gun: Maverick (2022) ท็อปกัน: มาเวอริค

Top Gun: Maverick | May 27, 2022 (United States) Summary: After more than thirty years of service as one of the Navy's top aviators, Pete Mitchell is where he belongs, pushing the envelope as a courageous test pilot and dodging the advancement in r... Read all
Countries: United StatesLanguages: English

เรื่องย่อ Top Gun: Maverick (2022) ท็อปกัน: มาเวอริค

เรื่องราวหลังจากรับราชการเป็นนักบินระดับท็อปของกอง ทัพเรือมานานกว่า 30 ปี พีท ‘มาเวอริค’ มิทเชลล์ (ทอม ครูซ) กลับมาสู่ที่ซึ่งเหมาะสมกับเขาเขากลับมาเป็นนักบินทดสอบผู้กล้าหาญและหลีกหนีจากความก้าวหน้าทางการงาน เขากลับมาฝึกหน่วยท็อปกันเพื่อปฏิบัติภารกิจพิเศษในรูปแบบที่ไม่เคยมีนักบินที่ยังมีชีวิตอยู่เคยเห็นมาก่อน มาเวอริค ต้องเผชิญหน้ากับ เรือโทแบรดลีย์ แบรดชอว์ (ไมล์ เทลเลอร์) หรือ “รูสเตอร์” ลูกชายของ เรือโทนิค แบรดชอว์ หรือ “กูส” เพื่อนของเขาที่เสียชีวิตไปแล้ว เขาต้องพบกับอนาคตที่ไม่แน่นอนและอดีตที่ตามหลอกหลอน มาเวอริคต้องเผชิญกับความกลัวที่ฝังลึกอยู่ และปฏิบัติภารกิจให้สำเร็จ ซึ่งภารกิจนี้ผู้ที่ได้รับเลือกให้ร่วมบินต้องเสียสละอย่างที่สุด!!!

Complete name : [MINI Super-HQ]_Top.Gun.Maverick.2022.1080p.BrRip.AC3.x264.EX.One2loadup.com.mkv
Format : Matroska
Format version : Version 4
File size : 5.10 GiB
Duration : 2 h 10 min
Overall bit rate : 5 604 kb/s
Movie name : [MINI Super-HQ]_Top.Gun.Maverick.2022.1080p.BrRip.AC3.x264.EX.One2loadup.com
Encoded date : UTC 2022-10-16 13:26:10
Writing application : mkvmerge v9.8.0 (‘Kuglblids’) 64bit
Writing library : libebml v1.3.4 + libmatroska v1.4.5

Video
ID : 1
Format : AVC
Format/Info : Advanced Video Codec
Format profile : [email protected]
Format settings : CABAC / 4 Ref Frames
Format settings, CABAC : Yes
Format settings, Reference : 4 frames
Codec ID : V_MPEG4/ISO/AVC
Duration : 2 h 10 min
Bit rate : 4 500 kb/s
Width : 1 920 pixels
Height : 1 012 pixels
Display aspect ratio : 1.897
Frame rate mode : Constant
Frame rate : 23.976 (24000/1001) FPS
Color space : YUV
Chroma subsampling : 4:2:0
Bit depth : 8 bits
Scan type : Progressive
Bits/(Pixel*Frame) : 0.097
Stream size : 4.09 GiB (80%)
Title : [MINI Super-HQ]_Top.Gun.Maverick.2022.1080p.BrRip.AC3.x264.EX.One2loadup.com
Writing library : x264 core 157 r2935 545de2f
Encoding settings : cabac=1 / ref=4 / deblock=1:0:0 / analyse=0x1:0x131 / me=tesa / subme=11 / psy=1 / psy_rd=1.00:0.00 / mixed_ref=1 / me_range=24 / chroma_me=1 / trellis=2 / 8x8dct=0 / cqm=0 / deadzone=21,11 / fast_pskip=0 / chroma_qp_offset=-2 / threads=12 / lookahead_threads=3 / sliced_threads=0 / nr=0 / decimate=1 / interlaced=0 / bluray_compat=0 / constrained_intra=0 / bframes=16 / b_pyramid=2 / b_adapt=2 / b_bias=0 / direct=3 / weightb=1 / open_gop=0 / weightp=2 / keyint=240 / keyint_min=24 / scenecut=40 / intra_refresh=0 / rc_lookahead=60 / rc=2pass / mbtree=1 / bitrate=4500 / ratetol=1.0 / qcomp=0.60 / qpmin=0 / qpmax=69 / qpstep=4 / cplxblur=20.0 / qblur=0.5 / vbv_maxrate=50000 / vbv_bufsize=62500 / nal_hrd=none / filler=0 / ip_ratio=1.40 / aq=1:1.00
Language : English
Default : Yes
Forced : Yes
Color range : Limited
Color primaries : BT.709
Transfer characteristics : BT.709
Matrix coefficients : BT.709

Audio #1
ID : 2
Format : AC-3
Format/Info : Audio Coding 3
Commercial name : Dolby Digital
Codec ID : A_AC3
Duration : 2 h 10 min
Bit rate mode : Constant
Bit rate : 384 kb/s
Channel(s) : 6 channels
Channel layout : L R C LFE Ls Rs
Sampling rate : 48.0 kHz
Frame rate : 31.250 FPS (1536 SPF)
Compression mode : Lossy
Stream size : 358 MiB (7%)
Title : Thai DD 5.1 Master
Language : Thai
Service kind : Complete Main
Default : Yes
Forced : Yes

Audio #2
ID : 3
Format : AC-3
Format/Info : Audio Coding 3
Commercial name : Dolby Digital
Format settings : Dolby Surround EX
Codec ID : A_AC3
Duration : 2 h 10 min
Bit rate mode : Constant
Bit rate : 640 kb/s
Channel(s) : 6 channels
Channel layout : L R C LFE Ls Rs
Sampling rate : 48.0 kHz
Frame rate : 31.250 FPS (1536 SPF)
Compression mode : Lossy
Delay relative to video : 18 ms
Stream size : 596 MiB (11%)
Title : English DD 5.1-EX
Language : English
Service kind : Complete Main
Default : No
Forced : No

Text #1
ID : 4
Format : PGS
Codec ID : S_HDMV/PGS
Codec ID/Info : Picture based subtitle format used on BDs/HD-DVDs
Duration : 2 h 9 min
Bit rate : 31.1 kb/s
Count of elements : 2974
Stream size : 28.8 MiB (1%)
Title : Thai PGS
Language : Thai
Default : Yes
Forced : Yes

Text #2
ID : 5
Format : VobSub
Codec ID : S_VOBSUB
Codec ID/Info : Picture based subtitle format used on DVDs
Duration : 2 h 9 min
Bit rate : 7 755 b/s
Count of elements : 1487
Stream size : 7.18 MiB (0%)
Title : Thai VobSub
Language : Thai
Default : No
Forced : No

Text #3
ID : 6
Format : VobSub
Codec ID : S_VOBSUB
Codec ID/Info : Picture based subtitle format used on DVDs
Duration : 2 h 9 min
Bit rate : 7 738 b/s
Count of elements : 1487
Stream size : 7.16 MiB (0%)
Title : Thai VobSub [Yellow]
Language : Thai
Default : No
Forced : No

Text #4
ID : 7
Format : PGS
Codec ID : S_HDMV/PGS
Codec ID/Info : Picture based subtitle format used on BDs/HD-DVDs
Duration : 1 h 57 min
Bit rate : 36.9 kb/s
Count of elements : 2906
Stream size : 31.0 MiB (1%)
Title : English PGS
Language : English
Default : No
Forced : No

Menu
00:00:00.000 : en:Chapter 01
00:03:05.560 : en:Chapter 02
00:13:40.111 : en:Chapter 03
00:21:23.282 : en:Chapter 04
00:32:39.416 : en:Chapter 05
00:44:47.768 : en:Chapter 06
00:53:54.940 : en:Chapter 07
01:00:09.856 : en:Chapter 08
01:07:39.305 : en:Chapter 09
01:15:46.167 : en:Chapter 10
01:23:37.721 : en:Chapter 11
01:31:49.129 : en:Chapter 12
01:41:32.920 : en:Chapter 13
01:48:48.272 : en:Chapter 14
01:57:22.410 : en:Chapter 15
02:03:13.136 : en:Chapter 16

DOWNLOAD


PART01 |||| PART02 |||| PART03 |||| PART04 |||| PART05 |||| PART06

PART01 |||| PART02 |||| PART03 |||| PART04 |||| PART05 |||| PART06

PART01 |||| PART02 |||| PART03 |||| PART04 |||| PART05 |||| PART06

PART01 |||| PART02 |||| PART03 |||| PART04 |||| PART05 |||| PART06

PART01 |||| PART02 |||| PART03 |||| PART04 |||| PART05 |||| PART06


Leave A Reply

อีเมล์ของคุณจะไม่แสดงให้เห็น Your email address will not be published.

%d bloggers like this: